Watch UFC on Fox 26 Prelims WEB DL /720p

Watch UFC on Fox 26 Prelims WEB DL /720p

 

 

 

 

 

wwe

 

 

 

 

 

 

Complete name : UFC.on.Fox.26.Prelims.720p.WEB-DL.mp4
Format : MPEG-4
Format profile : Base Media
Codec ID : isom
File size : 5.24 GiB
Duration : 2h 58mn
Overall bit rate : 4 193 Kbps
Writing application : Lavf56.40.101

Video
ID : 1
Format : AVC
Format/Info : Advanced Video Codec
Codec ID : avc1
Codec ID/Info : Advanced Video Coding
Duration : 2h 58mn
Bit rate mode : Variable
Bit rate : 4 057 Kbps
Width : 1 280 pixels
Height : 720 pixels
Display aspect ratio : 16:9
Frame rate mode : Constant
Frame rate : 29.970 fps
Color space : YUV
Chroma subsampling : 4:2:0
Bit depth : 8 bits
Scan type : Progressive
Bits/(Pixel*Frame) : 0.147
Stream size : 5.07 GiB (97%)

Audio
ID : 2
Format : AAC
Format/Info : Advanced Audio Codec
Format profile : LC
Codec ID : 40
Duration : 2h 58mn
Bit rate mode : Variable
Bit rate : 126 Kbps
Maximum bit rate : 133 Kbps
Channel(s) : 2 channels
Channel positions : Front: L R
Sampling rate : 44.1 KHz
Compression mode : Lossy
Stream size : 161 MiB (3%)

 

 

 

 

 

 
Complete name : UFC.on.Fox.26.Prelims.WEB-DL.mp4
Format : MPEG-4
Format profile : Base Media
Codec ID : isom
File size : 1.86 GiB
Duration : 2h 58mn
Overall bit rate : 1 492 Kbps
Writing application : Lavf56.40.101

Video
ID : 1
Format : AVC
Format/Info : Advanced Video Codec
Codec ID : avc1
Codec ID/Info : Advanced Video Coding
Duration : 2h 58mn
Bit rate mode : Variable
Bit rate : 1 405 Kbps
Width : 852 pixels
Height : 480 pixels
Display aspect ratio : 16:9
Frame rate mode : Constant
Frame rate : 29.970 fps
Color space : YUV
Chroma subsampling : 4:2:0
Bit depth : 8 bits
Scan type : Progressive
Bits/(Pixel*Frame) : 0.115
Stream size : 1.75 GiB (94%)

Audio
ID : 2
Format : AAC
Format/Info : Advanced Audio Codec
Format profile : LC
Codec ID : 40
Duration : 2h 58mn
Bit rate mode : Variable
Bit rate : 77.6 Kbps
Maximum bit rate : 87.5 Kbps
Channel(s) : 2 channels
Channel positions : Front: L R
Sampling rate : 44.1 KHz
Compression mode : Lossy
Stream size : 99.2 MiB (5%)

 

 

 

 

 

 

 

 

 

 

 

 

Watch UFC on Fox 26 Prelims WEB DL /720p

 

 

 

 

Watch online

 

 

Waiting finish converting video

 

 

Server 1

 

 

 

 

 

 

 

 

 

 

 

 

 

 

 

 

 

 

 

 

 

Server 2

 

 

 

 

 

 

 

 

 

 


 

 

 

 

 

 

 

 

 

 

 

Uploaded By Site DX-TV.com

 

 

 

open rar file to see this password

 

 

 

 

The password is : DX-TV.com

 

 

 

 

400p+720p

 

 

 

 

 

rapidgator.net

 

 

 

 

 

 

 

 

http://shrt10.com/OH3GCcJa

 

 

http://shrt10.com/90s3P53C

 

 

http://shrt10.com/OajXxTG

 

 

 

 

 

 

 

 

 

 

 

 

 

Watch UFC on Fox 26 Prelims WEB DL /720p

Support HVIPS

Please Disable Ad-Block To View This site. just help us to continue this work