Watch UFC on Fox 26 Early Prelims 720p WEB DL

Watch UFC on Fox 26 Early Prelims 720p WEB DL

 

 

 

 

 

 

wwe

 

 

 

 

 

 

 

Complete name : UFC.on.Fox.26.Early.Prelims.720p.WEB-DL.mp4
Format : MPEG-4
Format profile : Base Media
Codec ID : isom
File size : 904 MiB
Duration : 29mn 1s
Overall bit rate : 4 353 Kbps
Writing application : Lavf56.40.101

Video
ID : 1
Format : AVC
Format/Info : Advanced Video Codec
Codec ID : avc1
Codec ID/Info : Advanced Video Coding
Duration : 29mn 1s
Bit rate mode : Variable
Bit rate : 4 221 Kbps
Width : 1 280 pixels
Height : 720 pixels
Display aspect ratio : 16:9
Frame rate mode : Variable
Frame rate : 29.472 fps
Original frame rate : 29.970 fps
Minimum frame rate : 0.101 fps
Maximum frame rate : 29.970 fps
Color space : YUV
Chroma subsampling : 4:2:0
Bit depth : 8 bits
Scan type : Progressive
Bits/(Pixel*Frame) : 0.155
Stream size : 876 MiB (97%)

Audio
ID : 2
Format : AAC
Format/Info : Advanced Audio Codec
Format profile : LC
Codec ID : 40
Duration : 29mn 1s
Bit rate mode : Constant
Bit rate : 123 Kbps
Channel(s) : 2 channels
Channel positions : Front: L R
Sampling rate : 44.1 KHz
Compression mode : Lossy
Stream size : 25.6 MiB (3%)

 

 

 

 

 

 

 

 

 

 

 

 

 

 

 

 

 

Watch UFC on Fox 26 Early Prelims 720p WEB DL

 

 

 

 

Watch online

 

 

Waiting finish converting video

 

 

Server 1

 

 

 

 

 

 

 

 

 

 

 

 

 

 

 

 

 

 

 

 

Server 2

 

 

 

 

 

 

 

 

 

 


 

 

 

 

 

 

 

 

 

 

 

Uploaded By Site DX-TV.com

 

 

 

open rar file to see this password

 

 

 

 

The password is : DX-TV.com

 

 

 

 

720p

 

 

 

 

 

rapidgator.net

 

 

 

 

 

 

 

 

 

 

 

http://shrt10.com/SxKAqbg

 

 

 

 

 

 

 

 

 

 

Watch UFC on Fox 26 Early Prelims 720p WEB DL