Watch UFC Fight Night 127 WEB DL /720p

Watch UFC Fight Night 127 WEB DL /720p

 

 

 

s

 

 

 

wwe

 

 

 

 

 

 

 
Complete name : UFC.Fight.Night.127.WEB-DL.mp4
Format : MPEG-4
Format profile : Base Media
Codec ID : isom
File size : 1.58 GiB
Duration : 2h 30mn
Overall bit rate : 1 512 Kbps
Writing application : Lavf56.40.101

Video
ID : 1
Format : AVC
Format/Info : Advanced Video Codec
Format profile : Main@L3.1
Codec ID : avc1
Codec ID/Info : Advanced Video Coding
Duration : 2h 30mn
Bit rate mode : Variable
Bit rate : 1 425 Kbps
Width : 960 pixels
Height : 540 pixels
Display aspect ratio : 16:9
Frame rate mode : Variable
Frame rate : 29.919 fps
Original frame rate : 29.970 fps
Minimum frame rate : 0.129 fps
Maximum frame rate : 29.970 fps
Color space : YUV
Chroma subsampling : 4:2:0
Bit depth : 8 bits
Scan type : Progressive
Bits/(Pixel*Frame) : 0.092
Stream size : 1.49 GiB (94%)

Audio
ID : 2
Format : AAC
Format/Info : Advanced Audio Codec
Format profile : LC
Codec ID : 40
Duration : 2h 30mn
Bit rate mode : Variable
Bit rate : 77.4 Kbps
Maximum bit rate : 81.7 Kbps
Channel(s) : 2 channels
Channel positions : Front: L R
Sampling rate : 44.1 KHz
Compression mode : Lossy
Stream size : 83.1 MiB (5%)

 

 

 

 

 

 
[EVENT]: UFC.Fight.Night.127.720p.WEB-D.mp4
[SIZE]: 4.55 GB
[SOURCE]: Fight Pass
[CONTAINER]: mp4
[RESOLUTION]: 1280 x 720 @ 29.970 FPS
[VIDEO]: H264 @ 4205 Kbps
[AUDIO]: AAC @ 126 kbps
[Length]: 02:30:05
[Language]: English
 

 

 

 

 

 

 

 

Watch UFC Fight Night 127 WEB DL /720p

 

 

 

 

Watch online

 

 

Waiting finish converting video

 

 

Server 1

 

 

 

 

 

 

 

 

 

 

 

 

 

 

 

Server 2

 

 

 

 

 


 

 

 

 

 

Uploaded By Site DX-TV.com

 

 

 

open rar file to see this password

 

 

 

 

The password is : DX-TV.com

 

 

 

 

400p+720p

 

 

 

 

 

Uploaded.net + rapidgator.net

 

 

 

 

 

 

http://shrt10.com/nS69rK2t

 

http://shrt10.com/1VLFrDck

 

 

http://shrt10.com/uTlVzNDf

 

 

http://shrt10.com/zea4

 

 

 

 

 

 

Watch UFC Fight Night 127 WEB DL /720p

Support HVIPS

Please Disable Ad-Block To View This site. just help us to continue this work