Watch UFC Fight Night 125 Machida vs Anders HDTV Ebi /720p

Watch UFC Fight Night 125 Machida vs Anders HDTV Ebi /720p

 

 

 

 

 

 

wwe

 

 

 

 

 

 

 

Complete name : UFC.Fight.Night.125.Machida.vs.Anders.HDTV.x264-Ebi.mp4
Format : MPEG-4
Format profile : Base Media / Version 2
Codec ID : mp42
File size : 2.16 GiB
Duration : 3h 30mn
Overall bit rate : 1 466 Kbps
Encoded date : UTC 2018-02-04 07:20:24
Tagged date : UTC 2018-02-04 07:20:24

Video
ID : 1
Format : AVC
Format/Info : Advanced Video Codec
Codec ID : avc1
Codec ID/Info : Advanced Video Coding
Duration : 3h 30mn
Bit rate mode : Variable
Bit rate : 1 300 Kbps
Width : 712 pixels
Height : 400 pixels
Display aspect ratio : 16:9
Frame rate mode : Constant
Frame rate : 29.970 fps
Color space : YUV
Chroma subsampling : 4:2:0
Bit depth : 8 bits
Scan type : Progressive
Bits/(Pixel*Frame) : 0.152
Stream size : 1.91 GiB (89%)

Audio
ID : 2
Format : AAC
Format/Info : Advanced Audio Codec
Format profile : LC
Codec ID : 40
Duration : 3h 30mn
Bit rate mode : Variable
Bit rate : 160 Kbps
Channel(s) : 2 channels
Channel positions : Front: L R
Sampling rate : 48.0 KHz
Compression mode : Lossy
Stream size : 242 MiB (11%)
Title : Stereo
Encoded date : UTC 2018-02-04 07:20:24
Tagged date : UTC 2018-02-04 07:20:24

 

 

 

 

 

 

 

 

UFC.Fight.Night.125.Machida.vs.Anders.720p.HDTV.x264-Ebi 
Release Info: 
Show Name: UFC Fight Night 125 
Genre: MMA 
Release Date: 2018-02-04(UK) 
Air Date: 2018-02-03(BR) 
Source : HDTV 
Container: MP4 
Video: x264, 4699Kbps, 29,970fps, 1280×720, 16:9 
Audio: AAC, 192Kbps, 48KHz, 2ch 
Size: 6.92 GB 
Runtime: 3h 30mn

 

 

 

 

 

 

 

 

Watch UFC Fight Night 125 Machida vs Anders HDTV Ebi /720p

 

 

 

 

Watch online

 

 

Waiting finish converting video

 

 

Server 1

 

 

 

 

 

 

 

 

 

 

 

 

 

 

 

 

 

 

 

 

 

 

 

 

Srver 2

 

 

 

 

 

 

 

 

 

 

 


 

 

 

 

 

 

 

 

Uploaded By Site DX-TV.com

 

 

 

open rar file to see this password

 

 

 

 

The password is : DX-TV.com

 

 

 

 

400p+720p

 

 

 

 

Uploaded.net + rapidgator.net

 

 

 

 

 

 

 

 

http://shrt10.com/VpKNOBh

 

 

 

 

http://shrt10.com/7f0hqh5

 

 

 

 

 

 

 

http://shrt10.com/cK4HtEE

 

 

http://shrt10.com/Dn7CjjvI

 

 

http://shrt10.com/oi6UgK

 

 

http://shrt10.com/ZRK8PF

 

 

 

 

 

 

 

Watch UFC Fight Night 125 Machida vs Anders HDTV Ebi /720p