Watch UFC Fight Night 125 HDTV x264 DX-TV /720p

Watch UFC Fight Night 125 HDTV x264 DX-TV /720p

 

 

 

 

 

 

wwe

 

 

 

 

 

 

 
Complete name : UFC.Fight.Night.125.HDTV.x264-DX-TV.mp4
Format : MPEG-4
Format profile : Base Media / Version 2
Codec ID : mp42
File size : 1.86 GiB
Duration : 2h 40mn
Overall bit rate : 1 664 Kbps

Video
ID : 1
Format : AVC
Format/Info : Advanced Video Codec
Codec ID : avc1
Codec ID/Info : Advanced Video Coding
Duration : 2h 40mn
Bit rate mode : Variable
Bit rate : 1 500 Kbps
Width : 720 pixels
Height : 480 pixels
Display aspect ratio : 3:2
Frame rate mode : Constant
Frame rate : 30.000 fps
Standard : NTSC
Color space : YUV
Chroma subsampling : 4:2:0
Bit depth : 8 bits
Scan type : Progressive
Bits/(Pixel*Frame) : 0.145
Stream size : 1.67 GiB (90%)
Audio
ID : 2
Format : AAC
Format/Info : Advanced Audio Codec
Format profile : LC
Codec ID : 40
Duration : 2h 40mn
Bit rate mode : Variable
Bit rate : 160 Kbps
Channel(s) : 2 channels
Channel positions : Front: L R
Sampling rate : 48.0 KHz
Compression mode : Lossy
Stream size : 183 MiB (10%)
Title : Stereo
Encoded date : UTC 2018-02-04 07:15:23
Tagged date : UTC 2018-02-04 07:15:23

 

 

 

 

 

 

 
title˙UFC Fight Night 125 : Machida vs Anders
genre˙[ MMA
crf˙[ 23
rel. date˙[ 02.04.18
format˙[ x264
air date˙[ 02.03.18
source˙[ HDTV
runtime˙[ 2h 40m 05s
bitrate˙[ 4557kbps
filesize˙[ 5.52 GB
resolu.˙[ 1280×720
rar count˙[ 58x100mb
frames˙[ 59.940
audio˙[ 384 kbps AC3 5.1
location˙[ USA
 

 

 

 

 

 

 

 

 

 

 

 

 

 

 

 

Watch UFC Fight Night 125 HDTV x264 DX-TV /720p

 

 

 

 

Watch online

 

 

Waiting finish converting video

 

 

Server 1

 

 

 

 

 

 

 

 

 

 

 

 

 

 

 

 

 

 

 

 

 

Srver 2

 

 

 

 

 

 

 

 

 

 

 

 


 

 

 

 

 

 

 

Uploaded By Site DX-TV.com

 

 

 

open rar file to see this password

 

 

 

 

The password is : DX-TV.com

 

 

 

 

400p+720p

 

 

 

 

Uploaded.net + rapidgator.net

 

 

 

 

 

 

 

 

 

http://shrt10.com/JxxP1h

 

 

http://shrt10.com/5usUztp

 

 

http://shrt10.com/3LQUAhO

 

 

http://shrt10.com/leYOkF69

 

 

http://shrt10.com/pxn6

 

 

http://shrt10.com/n65j24i

 

 

 

 

 

 

 

 

 

 

 

 

 

 

 

 

 

 

 

 

 

 

Watch UFC Fight Night 125 HDTV x264 DX-TV /720p

Support HVIPS

Please Disable Ad-Block To View This site. just help us to continue this work