Watch UFC Fight Night 124 Stephens vs Choi HDTV Ebi /720p

Watch UFC Fight Night 124 Stephens vs Choi HDTV Ebi /720p

 

 

 

 

 

wwe

 

 

 

 

 

 

Complete name : UFC.Fight.Night.124.Stephens.vs.Choi.HDTV.x264-Ebi.mp4
Format : MPEG-4
Format profile : Base Media / Version 2
Codec ID : mp42
File size : 1.24 GiB
Duration : 2h 16mn
Overall bit rate : 1 307 Kbps
Encoded date : UTC 2018-01-15 06:20:14
Tagged date : UTC 2018-01-15 06:20:14

Video
ID : 1
Format : AVC
Format/Info : Advanced Video Codec
Codec ID : avc1
Codec ID/Info : Advanced Video Coding
Duration : 2h 16mn
Bit rate mode : Variable
Bit rate : 1 300 Kbps
Width : 712 pixels
Height : 400 pixels
Display aspect ratio : 16:9
Frame rate mode : Constant
Frame rate : 29.970 fps
Color space : YUV
Chroma subsampling : 4:2:0
Bit depth : 8 bits
Scan type : Progressive
Bits/(Pixel*Frame) : 0.152
Stream size : 1.23 GiB (99%)
Writing library : x264 core 148 r2708 86b7198
Tagged date : UTC 2018-01-15 06:20:14
Color primaries : BT.601-6 525, BT.1358 525, BT.1700 NTSC, SMPTE 170M
Transfer characteristics : BT.709-5, BT.1361
Matrix coefficients : BT.601-6 525, BT.1358 525, BT.1700 NTSC, SMPTE 170M

Audio
ID : 2
Format : AAC
Format/Info : Advanced Audio Codec
Format profile : LC
Codec ID : 40
Duration : 2h 16mn
Bit rate mode : Variable
Bit rate : 2 271 bps
Channel(s) : 2 channels
Channel positions : Front: L R
Sampling rate : 48.0 KHz
Compression mode : Lossy
Stream size : 2.21 MiB (0%)
Title : Stereo
Encoded date : UTC 2018-01-15 06:20:14
Tagged date : UTC 2018-01-15 06:20:14

 

 

 

 

 

 

 

 

 

 

 

 

 

 

 

 

 

 

Watch UFC Fight Night 124 Stephens vs Choi HDTV Ebi /720p

 

 

 

 

Watch online

 

 

Waiting finish converting video

 

 

Server 1

 

 

 

 

 

 

 

 

 

 

 

 

 

 

 

 

 

 

 

Server 2

 

 

 

 

 

 

 

 

 


 

 

 

 

 

 

 

Uploaded By Site DX-TV.com

 

 

 

open rar file to see this password

 

 

 

 

The password is : DX-TV.com

 

 

 

 

400p+720p

 

 

 

 

 

Uploaded.net + rapidgator.net

 

 

 

 

 

 

 

 

 

http://shrt10.com/Y2HOFxC

 

 

http://shrt10.com/CGuDcxr

 

 

 

 

coming soon 720p

 

 

 

 

 

 

Watch UFC Fight Night 124 Stephens vs Choi HDTV Ebi /720p