Watch UFC Fight Night 124 Early Prelims WEB /720p

Watch UFC Fight Night 124 Early Prelims WEB /720p

 

 

 

 

 

wwe

 

 

 

 

 

 

 

 

[EVENT]: UFC.Fight.Night.124.Early.Prelims.WEB-DL .mp4
[SIZE]: 974 MB
[SOURCE]: Fight Pass
[CONTAINER]: mp4
[RESOLUTION]: 960 x 540 @ 29.970 FPS
[VIDEO]: H264 @ 1440 Kbps
[AUDIO]: AAC @ 77.6 kbps
[Length]: 01:29:08
[Language]: English
 

 

 

 

 

 

 

 
Complete name : UFC.Fight.Night.124.Early.Prelims.720p.WEB-DL.mp4
Format : MPEG-4
Format profile : Base Media
Codec ID : isom
File size : 2.74 GiB
Duration : 1h 29mn
Overall bit rate : 4 408 Kbps
Writing application : Lavf56.40.101

Video
ID : 1
Format : AVC
Format/Info : Advanced Video Codec
Codec ID/Info : Advanced Video Coding
Duration : 1h 29mn
Bit rate mode : Variable
Bit rate : 4 273 Kbps
Width : 1 280 pixels
Height : 720 pixels
Display aspect ratio : 16:9
Frame rate mode : Variable
Frame rate : 29.938 fps
Original frame rate : 29.970 fps
Minimum frame rate : 0.283 fps
Maximum frame rate : 29.970 fps
Color space : YUV
Chroma subsampling : 4:2:0
Bit depth : 8 bits
Scan type : Progressive
Bits/(Pixel*Frame) : 0.155
Stream size : 2.66 GiB (97%)

Audio
ID : 2
Format : AAC
Format/Info : Advanced Audio Codec
Format profile : LC
Codec ID : 40
Duration : 1h 29mn
Bit rate mode : Variable
Bit rate : 125 Kbps
Maximum bit rate : 127 Kbps
Channel(s) : 2 channels
Channel positions : Front: L R
Sampling rate : 44.1 KHz
Compression mode : Lossy
Stream size : 80.0 MiB (3%)

 

 

 

 

 

 

 

 

Watch UFC Fight Night 124 Early Prelims WEB /720p

 

 

 

 

Watch online

 

 

Waiting finish converting video

 

 

Server 1

 

 

 

 

 

 

 

 

 

 

 

 

 

 

 

 

 

 

 

 

Server 2

 

 

 

 

 

 

 


 

 

 

 

 

 

Uploaded By Site DX-TV.com

 

 

 

open rar file to see this password

 

 

 

 

The password is : DX-TV.com

 

 

 

 

400p+720p

 

 

 

 

 

Uploaded.net + rapidgator.net

 

 

 

 

 

 

 

 

 

 

http://shrt10.com/FwHScc

 

 

http://shrt10.com/ksXA2x

 

 

http://shrt10.com/sOkKVoW

 

 

http://shrt10.com/hLJOl5

 

 

 

 

 

 

 

 

 

 

 

Watch UFC Fight Night 124 Early Prelims WEB /720p

Support HVIPS

Please Disable Ad-Block To View This site. just help us to continue this work