Watch UFC Fight Night 122 720pHDTV VERUM

Watch UFC Fight Night 122 720pHDTV VERUM

 

 

 

 

 

 

wwe

 

 

 

 

 

 

 

Complete name : ufc.fight.night.122.720p.hdtv.x264-verum.mkv
Format : Matroska
File size : 2.06 GiB
Duration : 1h 29mn
Overall bit rate : 3 301 Kbps
Encoded date : UTC 2010-02-22 21:41:29

Video
ID : 1
Format : AVC
Format/Info : Advanced Video Codec
Codec ID : V_MPEG4/ISO/AVC
Duration : 1h 29mn
Bit rate : 2 979 Kbps
Width : 1 280 pixels
Height : 720 pixels
Display aspect ratio : 16:9
Frame rate : 50.000 fps
Color space : YUV
Chroma subsampling : 4:2:0
Bit depth : 8 bits
Scan type : Progressive
Bits/(Pixel*Frame) : 0.065
Stream size : 1.86 GiB (90%)

Audio
ID : 2
Format version : Version 1
Format profile : Layer 2
Codec ID : A_MPEG/L2
Codec ID/Hint : MP2
Duration : 1h 29mn
Bit rate mode : Constant
Bit rate : 256 Kbps
Channel(s) : 2 channels
Sampling rate : 48.0 KHz
Compression mode : Lossy
Delay relative to video : -320ms
Stream size : 164 MiB (8%)

 

 

 

 

 

 

 

 

 

Watch UFC Fight Night 122 720pHDTV VERUM

 

 

 

 

Watch online

 

 

Waiting finish converting video

 

 

Server 1

 

 

 

 

 

 

 

 

 

 

 

 

 

 

 

 

 

 

 

 

Server 2

 

 

 

 

 

 

 

 

 


 

 

 

 

 

Srver 3

 

 

 

 

 

 

 

 

 

 

 

 


 

 

 

 

Uploaded By Site DX-TV.com

 

 

 

open rar file to see this password

 

 

 

 

The password is : DX-TV.com

 

 

 

 

720p

 

 

 

Uploaded.net

 

 

 

 

 

 

 

 

http://shrt10.com/Cwjg

 

 

 

 

 

 

 

rapidgator.net

 

 

 

 

 

 

 

 

http://shrt10.com/syumAm7

 

 

 

 

 

 

Watch UFC Fight Night 122 720pHDTV VERUM