Watch UFC Fight Night 120 WEB DL / 720p

Watch UFC Fight Night 120 WEB DL / 720p

 

 

 

 

 

 

wwe

 

 

 

 

 

 

Complete name : UFC.Fight.Night.120.720p.WEB-DL.mp4
Format : MPEG-4
Format profile : Base Media
Codec ID : isom
File size : 5.27 GiB
Duration : 3h 2mn
Overall bit rate : 4 128 Kbps
Writing application : Lavf56.40.101

Video
ID : 1
Format : AVC
Duration : 3h 2mn
Bit rate mode : Variable
Bit rate : 3 991 Kbps
Width : 1 280 pixels
Height : 720 pixels
Display aspect ratio : 16:9
Frame rate mode : Variable
Frame rate : 29.947 fps
Original frame rate : 29.970 fps
Minimum frame rate : 0.119 fps
Maximum frame rate : 29.970 fps
Color space : YUV
Chroma subsampling : 4:2:0
Bit depth : 8 bits
Scan type : Progressive
Bits/(Pixel*Frame) : 0.145
Stream size : 5.10 GiB (97%)

Audio
ID : 2
Format : AAC
Format profile : LC
Codec ID : 40
Duration : 3h 2mn
Bit rate mode : Constant
Bit rate : 125 Kbps
Channel(s) : 2 channels
Channel positions : Front: L R
Sampling rate : 44.1 KHz
Compression mode : Lossy
Stream size : 164 MiB (3%)

 

 

 

 

 

 

 

 

 
Complete name : UFC.Fight.Night.120.WEB-DL.mp4
Format : MPEG-4
Format profile : Base Media
Codec ID : isom
File size : 1.91 GiB
Duration : 3h 2mn
Overall bit rate : 1 493 Kbps
Writing application : Lavf56.40.101

Video
ID : 1
Format : AVC
Duration : 3h 2mn
Bit rate mode : Variable
Bit rate : 1 406 Kbps
Width : 960 pixels
Height : 540 pixels
Display aspect ratio : 16:9
Frame rate mode : Variable
Frame rate : 29.943 fps
Original frame rate : 29.970 fps
Minimum frame rate : 0.100 fps
Maximum frame rate : 29.970 fps
Color space : YUV
Chroma subsampling : 4:2:0
Bit depth : 8 bits
Scan type : Progressive
Bits/(Pixel*Frame) : 0.091
Stream size : 1.80 GiB (94%)

Audio
ID : 2
Format : AAC
Format profile : LC
Codec ID : 40
Duration : 3h 2mn
Bit rate mode : Constant
Bit rate : 77.5 Kbps
Channel(s) : 2 channels
Channel positions : Front: L R
Sampling rate : 44.1 KHz
Compression mode : Lossy
Stream size : 101 MiB (5%)

 

 

 

 

 

 

 

 

 

 

 

 

 

 

 

 

Watch Watch UFC Fight Night 120 WEB DL / 720p

 

 

Watch online

 

 

Waiting finish converting video

 

 

Server 1

 

 

 

 

 

 

 

 

 

 

 

 

 

 

 

 

 

 

 

 

Srver 2

 

 

 

 

 

 

 

 


 

 

 

 

 

 

 

Server 3

 

 

 

 

 

 

 

 

 


 

 

 

 

 

 

Uploaded By Site DX-TV.com

 

 

 

open rar file to see this password

 

 

 

 

The password is : DX-TV.com

 

 

 

 

400p + 720p

 

 

 

 

 

 

http://shrt10.com/KHV2nE

 

 

http://shrt10.com/L7rQtx

 

 

http://shrt10.com/sSevIy

 

 

 

 

 

 

 

 

 

rapidgator.net

 

 

 

 

 

 

http://shrt10.com/5V6Qsh

 

 

 

http://shrt10.com/wm0B

 

 

 

http://shrt10.com/knuBqYX

 

 

 

 

 

 

 

 

 

Watch UFC Fight Night 120 WEB DL / 720p