Watch UFC Fight Night 120 Prelims WEB DL / 720p

Watch UFC Fight Night 120 Prelims WEB DL / 720p

 

 

 

 

 

 

wwe

 

 

 

 

 

Complete name : UFC.Fight.Night.120.Prelims.720p.WEB-DL.mp4
Format : MPEG-4
Format profile : Base Media
Codec ID : isom
File size : 3.57 GiB
Duration : 2h 2mn
Overall bit rate : 4 178 Kbps
Writing application : Lavf56.40.101

Video
ID : 1
Format : AVC
Duration : 2h 2mn
Bit rate mode : Variable
Bit rate : 4 043 Kbps
Width : 1 280 pixels
Height : 720 pixels
Display aspect ratio : 16:9
Frame rate mode : Constant
Frame rate : 29.970 fps
Color space : YUV
Chroma subsampling : 4:2:0
Bit depth : 8 bits
Scan type : Progressive
Bits/(Pixel*Frame) : 0.146
Stream size : 3.46 GiB (97%)

Audio
ID : 2
Format : AAC
Format profile : LC
Codec ID : 40
Duration : 2h 2mn
Bit rate mode : Variable
Bit rate : 126 Kbps
Maximum bit rate : 132.3 Kbps
Channel(s) : 2 channels
Channel positions : Front: L R
Sampling rate : 44.1 KHz
Compression mode : Lossy
Stream size : 110 MiB (3%)

 

 

 

 

 

 
Complete name : UFC.Fight.Night.120.Prelims.WEB-DL.mp4
Format : MPEG-4
Format profile : Base Media
Codec ID : isom
File size : 1.28 GiB
Duration : 2h 2mn
Overall bit rate : 1 498 Kbps
Writing application : Lavf56.40.101

Video
ID : 1
Format : AVC
Duration : 2h 2mn
Bit rate mode : Variable
Bit rate : 1 411 Kbps
Width : 960 pixels
Height : 540 pixels
Display aspect ratio : 16:9
Frame rate mode : Constant
Frame rate : 29.970 fps
Color space : YUV
Chroma subsampling : 4:2:0
Bit depth : 8 bits
Scan type : Progressive
Bits/(Pixel*Frame) : 0.091
Stream size : 1.21 GiB (94%)

Audio
ID : 2
Format : AAC
Format profile : LC
Codec ID : 40
Duration : 2h 2mn
Bit rate mode : Constant
Bit rate : 77.6 Kbps
Channel(s) : 2 channels
Channel positions : Front: L R
Sampling rate : 44.1 KHz
Compression mode : Lossy
Stream size : 67.9 MiB (5%)

 

 

 

 

 

 

 

 

 

 

Watch UFC Fight Night 120 Prelims WEB DL / 720p

 

 

 

 

Watch online

 

 

Waiting finish converting video

 

 

Server 1

 

 

 

 

 

 

 

 

 

 

 

 

 

 

 

 

 

Srver 2

 

 

 

 

 

 

 

 

 

 


 

 

 

 

 

 

Server 3

 

 

 

 

 

 

 

 

 

 

 

 

 

 

 

 

 

 

Uploaded By Site DX-TV.com

 

 

 

open rar file to see this password

 

 

 

 

The password is : DX-TV.com

 

 

 

 

480p + 720p

 

 

 

 

Uploaded.net

 

 

 

 

 

 

 

http://shrt10.com/ob9ty2X

 

 

 

 

http://shrt10.com/dFWlvl0X

 

 

 

 

 

 

 

rapidgator.net

 

 

 

 

 

 

http://shrt10.com/J11Qk6AE

 

 

 

 

http://shrt10.com/N9dV5

 

 

 

 

 

 

 

Watch UFC Fight Night 120 Prelims WEB DL / 720p

Support HVIPS

Please Disable Ad-Block To View This site. just help us to continue this work