Watch UFC 221 PPV Romero vs Rockhold HDTV x264 Ebi /720p

Watch UFC 221 PPV Romero vs Rockhold HDTV x264 Ebi /720p

 

 

 

 

 

 

wwe

 

 

 

 

 

 

 

Complete name : UFC.221.PPV.Romero.vs.Rockhold.HDTV.x264-Ebi.mp4
Format : MPEG-4
Format profile : Base Media / Version 2
Codec ID : mp42
File size : 1.66 GiB
Duration : 2h 42mn
Overall bit rate : 1 467 Kbps
Encoded date : UTC 2018-02-11 06:27:07
Tagged date : UTC 2018-02-11 06:27:07

Video
ID : 1
Format : AVC
Format/Info : Advanced Video Codec
Codec ID : avc1
Codec ID/Info : Advanced Video Coding
Duration : 2h 42mn
Bit rate mode : Variable
Bit rate : 1 300 Kbps
Width : 712 pixels
Height : 400 pixels
Display aspect ratio : 16:9
Frame rate mode : Constant
Frame rate : 29.970 fps
Color space : YUV
Chroma subsampling : 4:2:0
Bit depth : 8 bits
Scan type : Progressive
Bits/(Pixel*Frame) : 0.152
Stream size : 1.48 GiB (89%)

Audio
ID : 2
Format : AAC
Format/Info : Advanced Audio Codec
Format profile : LC
Codec ID : 40
Duration : 2h 42mn
Bit rate mode : Variable
Bit rate : 160 Kbps
Channel(s) : 2 channels
Channel positions : Front: L R
Sampling rate : 48.0 KHz
Compression mode : Lossy
Stream size : 186 MiB (11%)
Title : Stereo
Encoded date : UTC 2018-02-11 06:27:07
Tagged date : UTC 2018-02-11 06:27:07

 

 

 

 

 

 

 

 

 

 

UFC.221.PPV.Romero.vs.Rockhold.720p.HDTV.x264-Ebi
Release Info:
Show Name: UFC 221 PPV
Genre: MMA
Release Date: 2018-02-11(UK)
Air Date: 2018-02-11(AU)
Source : HDTV
Container: MP4
Video: x264, 4701Kbps, 29,970fps, 1280×720, 16:9
Audio: AAC, 192Kbps, 48KHz, 2ch
Size: 5.34 GB
Runtime: 2h 42mn

 

 

 

 

 

 

Watch UFC 221 PPV Romero vs Rockhold HDTV x264 Ebi /720p

 

 

 

 

Watch online

 

 

Waiting finish converting video

 

 

Server 1

 

 

 

 

 

 

 

 

 

 

 

 

 

 

 

 

 

 

 

 

 

 

Server 2

 

 

 

 

 

 

 

 


 

 

Uploaded By Site DX-TV.com

 

 

 

open rar file to see this password

 

 

 

 

The password is : DX-TV.com

 

 

 

 

400p+720p

 

 

 

 

 

Uploaded.net + rapidgator.net

 

 

 

 

 

 

 

 

 

http://shrt10.com/GCSTC

 

 

 

http://shrt10.com/x837n

 

 

 

 

 

 

http://shrt10.com/D2kv

 

 

http://shrt10.com/2rNq

 

 

 

http://shrt10.com/zerNQQ

 

 

http://shrt10.com/nPnpBi

 

 

 

 

 

 

 

 

Watch UFC 221 PPV Romero vs Rockhold HDTV x264 Ebi /720p

Support HVIPS

Please Disable Ad-Block To View This site. just help us to continue this work