Watch UFC 220 Prelims WEB DL /720p mp4

Watch UFC 220 Prelims WEB DL /720p mp4

 

 

 

 

 

 

wwe

 

 

 

 

 

 

[EVENT]: UFC.220.Prelims.WEB-DL.mp4
[SIZE]: 1.28
[SOURCE]: Fight Pass
[CONTAINER]: mp4
[RESOLUTION]: 960 x 540 @ 29.970 FPS
[VIDEO]: H264 @ 1440 Kbps
[AUDIO]: AAC @ 78.2 kbps
[Length]: 01:59:47
[Language]: English
 

 

 

 

 

 

 
Complete name : UFC.220.Early.Prelims.720p.WEB-DL.mp4
Format : MPEG-4
Format profile : Base Media
Codec ID : isom
File size : 1.81 GiB
Duration : 59mn 38s
Overall bit rate : 4 356 Kbps
Writing application : Lavf56.40.101

Video
ID : 1
Format : AVC
Format/Info : Advanced Video Codec
Codec ID : avc1
Codec ID/Info : Advanced Video Coding
Duration : 59mn 37s
Bit rate mode : Variable
Bit rate : 4 222 Kbps
Width : 1 280 pixels
Height : 720 pixels
Display aspect ratio : 16:9
Frame rate mode : Variable
Frame rate : 29.970 fps
Minimum frame rate : 0.833 fps
Maximum frame rate : 29.970 fps
Color space : YUV
Chroma subsampling : 4:2:0
Bit depth : 8 bits
Scan type : Progressive
Bits/(Pixel*Frame) : 0.153
Stream size : 1.76 GiB (97%)

Audio
ID : 2
Format : AAC
Format/Info : Advanced Audio Codec
Format profile : LC
Codec ID : 40
Duration : 59mn 38s
Bit rate mode : Constant
Bit rate : 126 Kbps
Channel(s) : 2 channels
Channel positions : Front: L R
Sampling rate : 44.1 KHz
Compression mode : Lossy
Stream size : 53.6 MiB (3%)

 

 

 

 

 

 

 

 

 

 

 

Watch UFC 220 Prelims WEB DL /720p mp4

 

 

 

 

Watch online

 

 

Waiting finish converting video

 

 

Server 1

 

 

 

 

 

 

 

 

 

 

 

 

 

 

 

 

 

 

 

 

Server 2

 

 

 

 

 

 

 

 

 

 


 

 

 

 

 

 

 

 

Uploaded By Site DX-TV.com

 

 

 

open rar file to see this password

 

 

 

 

The password is : DX-TV.com

 

 

 

 

400p+720p

 

 

 

 

 

Uploaded.net + rapidgator.net

 

 

 

 

 

 

 

http://shrt10.com/YGC3

 

 

http://shrt10.com/iMLV8tG

 

 

 

http://shrt10.com/eMpRKcvu

 

 

 

http://shrt10.com/9Cnfu

 

 

 

 

 

 

Watch UFC 220 Prelims WEB DL /720p mp4

Support HVIPS

Please Disable Ad-Block To View This site. just help us to continue this work