Watch UFC 220 PPV Miocic vs Ngannou HDTV Ebi /720p

Watch UFC 220 PPV Miocic vs Ngannou HDTV Ebi /720p

 

 

 

 

 

 

wwe

 

 

 

 

 

 

 

Complete name : UFC.220.PPV.Miocic.vs.Ngannou.HDTV.x264-Ebi.mp4
Format : MPEG-4
Format profile : Base Media / Version 2
Codec ID : mp42
File size : 1.90 GiB
Duration : 3h 5mn
Overall bit rate : 1 465 Kbps

Video
ID : 1
Format : AVC
Format/Info : Advanced Video Codec
Codec ID : avc1
Codec ID/Info : Advanced Video Coding
Duration : 3h 5mn
Bit rate mode : Variable
Bit rate : 1 300 Kbps
Width : 712 pixels
Height : 400 pixels
Display aspect ratio : 16:9
Frame rate mode : Constant
Frame rate : 29.970 fps
Color space : YUV
Chroma subsampling : 4:2:0
Bit depth : 8 bits
Scan type : Progressive
Bits/(Pixel*Frame) : 0.152
Stream size : 1.68 GiB (89%)

Audio
ID : 2
Format : AAC
Format/Info : Advanced Audio Codec
Format profile : LC
Codec ID : 40
Duration : 3h 5mn
Bit rate mode : Variable
Bit rate : 160 Kbps
Channel(s) : 2 channels
Channel positions : Front: L R
Sampling rate : 48.0 KHz
Compression mode : Lossy
Stream size : 213 MiB (11%)
Title : Stereo
Encoded date : UTC 2018-01-21 06:49:30
Tagged date : UTC 2018-01-21 06:49:30

 

 

 

 

 

 

 

 

 

 

 

UFC.220.PPV.Miocic.vs.Ngannou.720p.HDTV.x264-Ebi
Release Info:
Show Name: UFC 220 PPV Miocic vs Ngannou
Genre: MMA
Release Date: 2018-01-21(UK)
Air Date: 2018-01-20(US)
Source : HDTV
Container: MP4
Video: x264, 4694Kbps, 29,970fps, 1280×720, 16:9
Audio: AAC, 192Kbps, 48KHz, 2ch
Size: 6.08 GB
Runtime: 3h 05mn

 

 

 

 

 

 

 

 

 

 

Watch UFC 220 PPV Miocic vs Ngannou HDTV Ebi /720p

 

 

 

 

Watch online

 

 

Waiting finish converting video

 

 

Server 1

 

 

 

 

 

 

 

 

 

 

 

 

 

 

 

 

 

 

 

 

 

 

 

 

 

 

 

 

 

 

 

Srver 2

 

 

 

 

 

 

 

 

 

 

 

 

 

 

 


 

 

 

 

 

Uploaded By Site DX-TV.com

 

 

 

open rar file to see this password

 

 

 

 

The password is : DX-TV.com

 

 

 

 

400p+720p

 

 

 

 

Uploaded.net + rapidgator.net

 

 

 

 

 

 

http://shrt10.com/UBKMM

 

 

http://shrt10.com/PyTF2

 

 

 

 

 

 

 

http://shrt10.com/YkAzsJE

 

 

http://shrt10.com/e14b

 

 

http://shrt10.com/7Ls9F

 

 

http://shrt10.com/04e2wwh

 

 

 

 

 

 

 

 

 

 

 

Watch UFC 220 PPV Miocic vs Ngannou HDTV Ebi /720p

Support HVIPS

Please Disable Ad-Block To View This site. just help us to continue this work