Watch UFC 220 PPV HDTV x264 DX-TV /720p

Watch UFC 220 PPV HDTV x264 DX-TV /720p

 

 

 

 

 

 

wwe

 

 

 

 

 

[EVENT]………..: UFC 220 PPV HDTV.x264 DX-TV mp4
[RELEASED]……..: 2018.01.21
[SOURCE]……….: 720p HDTV
[CONTAINER]…….: mp4
[SIZE]…………: 2.40 GB
[Capper Group]….: DX-TV
[Duration]……..: 3 h 5 m
[RESOLUTION]……: 720 x 480 {16:9}@ 30.000 FPS
[VIDEO]………..: x264 @ 1500 kbps
[AUDIO]………..: AAC @ 160 kbps
[language]……..: English
 

 

 

 

 

 
Complete name : UFC.220.PPV.720p.HDTV.x264-VERUM.mkv
Format : Matroska
File size : 4.38 GiB
Duration : 3h 5mn
Overall bit rate : 3 369 Kbps
Encoded date : UTC 2010-02-22 21:41:29

Video
ID : 1
Format : AVC
Format/Info : Advanced Video Codec
Codec ID : V_MPEG4/ISO/AVC
Duration : 3h 5mn
Bit rate : 3 046 Kbps
Width : 1 280 pixels
Height : 720 pixels
Display aspect ratio : 16:9
Frame rate : 50.000 fps
Color space : YUV
Chroma subsampling : 4:2:0
Bit depth : 8 bits
Scan type : Progressive
Bits/(Pixel*Frame) : 0.066
Stream size : 3.96 GiB (90%)

Audio
ID : 2 
Format version : Version 1
Format profile : Layer 2
Codec ID : A_MPEG/L2
Codec ID/Hint : MP2
Duration : 3h 5mn
Bit rate mode : Constant
Bit rate : 256 Kbps
Channel(s) : 2 channels
Sampling rate : 48.0 KHz
Compression mode : Lossy
Delay relative to video : -620ms
Stream size : 340 MiB (8%)
Language : English

 

 

 

 

 

 

 

 

 

 

 

 

Watch UFC 220 PPV HDTV x264 DX-TV /720p

 

 

Watch online

 

 

Waiting finish converting video

 

 

Server 1

 

 

 

 

 

 

 

 

 

 

 

 

 

 

 

 

 

 

 

 

 

 

 

 

 

 

Server 2

 

 

 

 

 

 

 

 

 

 

 

 


 

 

 

 

 

 

 

 

Uploaded By Site DX-TV.com

 

 

 

open rar file to see this password

 

 

 

 

The password is : DX-TV.com

 

 

 

 

400p+720p

 

 

 

 

 

Uploaded.net + rapidgator.net

 

 

 

http://shrt10.com/Hz4MR

 

 

 

 

 

http://shrt10.com/lzi04b3F

 

 

 

 

http://shrt10.com/rxCEtB

 

 

 

 

http://shrt10.com/tNJGUG

 

 

 

 

 

 

 

 

Watch UFC 220 PPV HDTV x264 DX-TV /720p

Support HVIPS

Please Disable Ad-Block To View This site. just help us to continue this work