Watch UFC 220 Early Prelims WEB DL /720p

Watch UFC 220 Early Prelims WEB DL /720p

 

 

 

 

 

wwe

 

 

 

 

 

 

[EVENT]: UFC.220.Early.Prelims.WEB-DL.mp4
[SIZE]: 645 MB
[SOURCE]: Fight Pass
[CONTAINER]: mp4
[RESOLUTION]: 852 x 480 @ 29.970 FPS
[VIDEO]: H264 @ 1425 Kbps
[AUDIO]: AAC @ 77.6 kbps
[Length]: 00:59:38
[Language]: English
 

 

 

 

 

 

 

 
Complete name : UFC.220.Prelims.720p.WEB-DL.mp4
Format : MPEG-4
Format profile : Base Media
Codec ID : isom
File size : 3.65 GiB
Duration : 1h 59mn
Overall bit rate : 4 363 Kbps
Writing application : Lavf56.40.101

Video
ID : 1
Format : AVC
Format/Info : Advanced Video Codec
Codec ID : avc1
Codec ID/Info : Advanced Video Coding
Duration : 1h 59mn
Bit rate mode : Variable
Bit rate : 4 230 Kbps
Width : 1 280 pixels
Height : 720 pixels
Display aspect ratio : 16:9
Frame rate mode : Variable
Frame rate : 29.970 fps
Minimum frame rate : 0.468 fps
Maximum frame rate : 29.970 fps
Color space : YUV
Chroma subsampling : 4:2:0
Bit depth : 8 bits
Scan type : Progressive
Bits/(Pixel*Frame) : 0.153
Stream size : 3.54 GiB (97%)

Audio
ID : 2
Format : AAC
Format/Info : Advanced Audio Codec
Format profile : LC
Codec ID : 40
Duration : 1h 59mn
Bit rate mode : Variable
Bit rate : 126 Kbps
Maximum bit rate : 136 Kbps
Channel(s) : 2 channels
Channel positions : Front: L R
Sampling rate : 44.1 KHz
Compression mode : Lossy
Stream size : 108 MiB (3%)

 

 

 

 

 

 

 

 

 

 

Watch UFC 220 Early Prelims WEB DL /720p

 

 

 

 

Watch online

 

 

Waiting finish converting video

 

 

Server 1

 

 

 

 

 

 

 

 

 

 

 

 

 

 

 

 

 

 

 

 

Server 2

 

 

 

 

 

 

 

 

 

 

 

 

 

 

 

 

 

Uploaded By Site DX-TV.com

 

 

 

open rar file to see this password

 

 

 

 

The password is : DX-TV.com

 

 

 

 

400p+720p

 

 

 

 

 

Uploaded.net + rapidgator.net

 

 

 

 

 

 

http://shrt10.com/RCIScRV

 

 

http://shrt10.com/d3iIfx

 

 

http://shrt10.com/Au71

 

 

http://shrt10.com/x11KnuR

 

 

 

 

 

 

Watch UFC 220 Early Prelims WEB DL /720p