Watch UFC 219 Prelims HDTV Ebi mp4

Watch UFC 219 Prelims HDTV Ebi mp4

 

 

 

 

 

 

wwe

 

 

 

 

 

 

Complete name : UFC.219.Prelims.HDTV.x264-Ebi.mp4
Format : MPEG-4
Format profile : Base Media / Version 2
Codec ID : mp42
File size : 1.46 GiB
Duration : 2h 22mn
Overall bit rate : 1 463 Kbps

Video
ID : 1
Format : AVC
Format/Info : Advanced Video Codec
Codec ID : avc1
Codec ID/Info : Advanced Video Coding
Duration : 2h 22mn
Bit rate mode : Variable
Bit rate : 1 300 Kbps
Width : 712 pixels
Height : 400 pixels
Display aspect ratio : 16:9
Frame rate mode : Constant
Frame rate : 29.970 fps
Color space : YUV
Chroma subsampling : 4:2:0
Bit depth : 8 bits
Scan type : Progressive
Bits/(Pixel*Frame) : 0.152
Stream size : 1.29 GiB (89%)

Audio
ID : 2
Format : AAC
Format/Info : Advanced Audio Codec
Format profile : LC
Codec ID : 40
Duration : 2h 22mn
Bit rate mode : Variable
Bit rate : 160 Kbps
Channel(s) : 2 channels
Channel positions : Front: L R
Sampling rate : 48.0 KHz
Compression mode : Lossy
Stream size : 164 MiB (11%)
Title : Stereo
Encoded date : UTC 2017-12-31 04:09:29
Tagged date : UTC 2017-12-31 04:09:29

 

 

 

 

 

 

 

 

 

 

 

 

 

 

 

 

 

 

Watch UFC 219 Prelims HDTV Ebi mp4

 

 

 

 

Watch online

 

 

Waiting finish converting video

 

 

Server 1

 

 

 

 

 

 

 

 

 

 

 

 

 

 

 

 

 

 

 

 

 

 

 

 

 

 

Server 2

 

 

 

 

 

 

 

 

 

 


 

 

 

 

 

 

 

 

 

 

 

Uploaded By Site DX-TV.com

 

 

 

open rar file to see this password

 

 

 

 

The password is : DX-TV.com

 

 

 

 

400p+720p

 

 

 

 

 

Uploaded.net + rapidgator.net

 

 

 

 

 

 

 

 

http://shrt10.com/cpF7iO

 

 

http://shrt10.com/7XrKZzS

 

 

 

 

 

coming soon 720p

 

 

 

 

 

 

Watch UFC 219 Prelims HDTV Ebi mp4

Support HVIPS

Please Disable Ad-Block To View This site. just help us to continue this work