Watch UFC 219 PPV HDTV x264 DX-TV /720p

Watch UFC 219 PPV HDTV x264 DX-TV /720p

 

 

 

 

 

 

wwe

 

 

 

 

 

 

 

Complete name :UFC.219.PPV.HDTV.x264.DX-TV.m4v
Format : MPEG-4
Format profile : Base Media / Version 2
Codec ID : mp42
File size : 2.12 GiB
Duration : 3h 14mn
Overall bit rate : 1 566 Kbps

Video
ID : 1
Format : AVC
Format/Info : Advanced Video Codec
Codec ID : avc1
Codec ID/Info : Advanced Video Coding
Duration : 3h 14mn
Bit rate mode : Variable
Bit rate : 1 400 Kbps
Width : 720 pixels
Height : 480 pixels
Display aspect ratio : 16:9
Original display aspect ratio : 16:9
Frame rate mode : Variable
Frame rate : 30.000 fps
Minimum frame rate : 0.758 fps
Maximum frame rate : 50.000 fps
Standard : NTSC
Color space : YUV
Chroma subsampling : 4:2:0
Bit depth : 8 bits
Scan type : Progressive
Bits/(Pixel*Frame) : 0.135
Stream size : 1.90 GiB (89%)

Audio
ID : 2
Format : AAC
Format/Info : Advanced Audio Codec
Format profile : LC
Codec ID : 40
Duration : 3h 14mn
Bit rate mode : Variable
Bit rate : 160 Kbps
Channel(s) : 2 channels
Channel positions : Front: L R
Sampling rate : 48.0 KHz
Compression mode : Lossy
Stream size : 223 MiB (10%)
Title : Stereo
Language : English

 

 

 

 

 

 

 

 

Complete name : UFC.219.PPV.720p.HDTV.x264-VERUM.mkv
Format : Matroska
File size : 4.70 GiB
Duration : 3h 14mn
Overall bit rate : 3 461 Kbps

Video
ID : 1
Format : AVC
Format/Info : Advanced Video Codec
Duration : 3h 14mn
Bit rate : 3 136 Kbps
Width : 1 280 pixels
Height : 720 pixels
Display aspect ratio : 16:9
Frame rate : 50.000 fps
Color space : YUV
Chroma subsampling : 4:2:0
Bit depth : 8 bits
Scan type : Progressive
Bits/(Pixel*Frame) : 0.068
Stream size : 4.26 GiB (91%)
Audio
ID : 2
Format version : Version 1
Format profile : Layer 2
Codec ID : A_MPEG/L2
Codec ID/Hint : MP2
Duration : 3h 14mn
Bit rate mode : Constant
Bit rate : 256 Kbps
Channel(s) : 2 channels
Sampling rate : 48.0 KHz
Compression mode : Lossy
Delay relative to video : -1s 300ms
Stream size : 356 MiB (7%)
Language : English
 

 

 

 

 

 

 

 

Watch UFC 219 PPV HDTV x264 DX-TV /720p

 

 

 

 

Watch online

 

 

Waiting finish converting video

 

 

Server 1

 

 

 

 

 

 

 

 

 

 

 

 

 

 

 

 

 

 

 

 

 

 

 

 

 

 

 

 

 

Srver 2

 

 

 

 

 

 

 

 

 

 

 

 

 

 

 


 

 

 

 

 

 

 

 

 

 

 

 

 

 

 

 

 

 

Uploaded By Site DX-TV.com

 

 

 

open rar file to see this password

 

 

 

 

The password is : DX-TV.com

 

 

 

 

400p+720p

 

 

 

 

Uploaded.net + rapidgator.net

 

 

 

 

 

 

http://shrt10.com/wGW8x

 

 

 

 

http://shrt10.com/Drd4pO

 

 

 

 

 

 

 

 

http://shrt10.com/BWjSbk

 

 

http://shrt10.com/GQZxm2

 

 

http://shrt10.com/fgezjBU

 

 

http://shrt10.com/a9VWrVss

 

 

 

 

 

 

 

 

 

 

 

 

 

 

 

 

 

 

 

Watch UFC 219 PPV HDTV x264 DX-TV /720p

Tags: , , , , , , ,

Support HVIPS

Please Disable Ad-Block To View This site. just help us to continue this work