Watch UFC 219 Early Prelims 720p WEB DL

Watch UFC 219 Early Prelims 720p WEB DL

 

 

 

 

 

 

wwe

 

 

 

 

 

 

 

Complete name : UFC.219.Early.Prelims.720p.WEB-DL.mp4
Format : MPEG-4
Format profile : Base Media
Codec ID : isom
File size : 883 MiB
Duration : 28mn 48s
Overall bit rate : 4 284 Kbps
Writing application : Lavf56.40.101

Video
ID : 1
Format : AVC
Format/Info : Advanced Video Codec
Codec ID : avc1
Codec ID/Info : Advanced Video Coding
Duration : 28mn 48s
Bit rate mode : Variable
Bit rate : 4 149 Kbps
Width : 1 280 pixels
Height : 720 pixels
Display aspect ratio : 16:9
Frame rate mode : Constant
Frame rate : 29.970 fps
Color space : YUV
Chroma subsampling : 4:2:0
Bit depth : 8 bits
Scan type : Progressive
Bits/(Pixel*Frame) : 0.150
Stream size : 855 MiB (97%)

Audio
ID : 2
Format : AAC
Format/Info : Advanced Audio Codec
Format profile : LC
Codec ID : 40
Duration : 28mn 48s
Bit rate mode : Variable
Bit rate : 126 Kbps
Maximum bit rate : 130 Kbps
Channel(s) : 2 channels
Channel positions : Front: L R
Sampling rate : 44.1 KHz
Compression mode : Lossy
Stream size : 25.9 MiB (3%)

 

 

 

 

 

 

 

 

 

 

 

 

 

 

 

 

 

Watch UFC 219 Early Prelims 720p WEB DL

 

 

 

 

Watch online

 

 

Waiting finish converting video

 

 

Server 1

 

 

 

 

 

 

 

 

 

 

 

 

 

 

 

 

 

 

 

 

 

 

 

 

 

Server 2

 

 

 

 

 

 

 

 

 

 


 

 

 

 

 

 

 

 

 

 

 

 

Uploaded By Site DX-TV.com

 

 

 

open rar file to see this password

 

 

 

 

The password is : DX-TV.com

 

 

 

 

720p

 

 

 

 

 

Uploaded.net + rapidgator.net

 

 

 

 

 

 

 

 

 

http://shrt10.com/BakPon

 

 

http://shrt10.com/CNTY7

 

 

 

 

 

 

 

 

 

 

 

 

Watch UFC 219 Early Prelims 720p WEB DL

Support HVIPS

Please Disable Ad-Block To View This site. just help us to continue this work