Watch Titan FC 48 Torres vs Orellano WEB DL SF63

Watch Titan FC 48 Torres vs Orellano WEB DL SF63

 

 

 

 

 

 

wwe

 

 

 

 

 

 
Complete name : Titan.FC.48.Torres.vs.Orellano.WEB.DL.H264-SF63.mp4
Format : MPEG-4
Format profile : Base Media
Codec ID : isom
File size : 2.59 GiB
Duration : 4h 2mn
Overall bit rate : 1 526 Kbps
Writing application : Lavf56.40.101

Video
ID : 1
Format : AVC
Format/Info : Advanced Video Codec
Codec ID : avc1
Codec ID/Info : Advanced Video Coding
Duration : 4h 2mn
Bit rate mode : Variable
Bit rate : 1 439 Kbps
Width : 960 pixels
Height : 540 pixels
Display aspect ratio : 16:9
Frame rate mode : Constant
Frame rate : 29.970 fps
Color space : YUV
Chroma subsampling : 4:2:0
Bit depth : 8 bits
Scan type : Progressive
Bits/(Pixel*Frame) : 0.093
Stream size : 2.44 GiB (94%)

Audio
ID : 2
Format : AAC
Format/Info : Advanced Audio Codec
Format profile : LC
Codec ID : 40
Duration : 4h 2mn
Bit rate mode : Variable
Bit rate : 77.6 Kbps
Maximum bit rate : 79.9 Kbps
Channel(s) : 2 channels
Channel positions : Front: L R
Sampling rate : 44.1 KHz
Compression mode : Lossy
Stream size : 135 MiB (5%)

 

 

 

 

 

 

 

 

 

 
Titan.FC.48.Torres.vs.Orellano.720p.WEB.DL.H264-SF63
Release: Feb 16, 2018 UFC.TV
Encoder: IRANUFC @Sajjad Fazli
Video: MPEG4 (H.264) 1280×720 29.97fps 2782kbps
Audio: AAC 44100Hz stereo 126kbps
Duration: 4h 2min
File size: 4.95 GiB
 

 

 

 

 

 

 

 

 

Watch Titan FC 48 Torres vs Orellano WEB DL SF63

 

 

 

 

Watch online

 

 

Waiting finish converting video

 

 

Server 1

 

 

 

 

 

 

 

 

 

 

 

 

 

 

 

 

 

Server 2

 

 

 

 

 

 

 


 

 

 

 

 

Uploaded By Site DX-TV.com

 

 

 

open rar file to see this password

 

 

 

 

The password is : DX-TV.com

 

 

 

 

400p+720p

 

 

 

 

 

Uploaded.net + rapidgator.net

 

 

 

 

 

 

 

http://shrt10.com/5SwqeJ6L

 

 

http://shrt10.com/3RxbS

 

 

http://shrt10.com/oRE9En

 

 

http://shrt10.com/YyzBy8VQ

 

 

 

 

 

 

 

 

 

 

 

Watch Titan FC 48 Torres vs Orellano WEB DL SF63