Watch Teddy Hart Reflections Shoot Interview November 2017 720P

Watch Teddy Hart Reflections Shoot Interview November 2017 720P

 

 

 

 

 

 

wwe

 

 

 

 

 

 

 

Teddy Hart – Reflections Shoot Interview (November 2017) (720P)
MP4 720P
Aprx Duration: 3 Hours

Info:
This is the brand new Nov 2017 shoot interview w/
Teddy Hart! One of the ultimate curses that can be handed to an athlete is the word
“potential”. Potential to live up to or exceed the lineage that has come before him.
The potential to improve upon or surpass not only his peers
but his own family. That very word was pinned to the one who would walk
with the burden of carrying on the legendary Hart family name in a business
that seemed synonymous with greatness.
 

 

 

 

 

 

 

 

 
Complete name : Teddy Hart – Reflections Shoot Interview (November 2017) (720P).mp4
Format : MPEG-4
Format profile : Base Media
Codec ID : isom
File size : 3.34 GiB
Duration : 3h 0mn
Overall bit rate : 2 649 Kbps

Video
ID : 1
Format : AVC
Format/Info : Advanced Video Codec
Codec ID : avc1
Codec ID/Info : Advanced Video Coding
Duration : 3h 0mn
Bit rate mode : Variable
Bit rate : 2 588 Kbps
Maximum bit rate : 4 084 Kbps
Width : 1 280 pixels
Height : 720 pixels
Display aspect ratio : 16:9
Frame rate mode : Constant
Frame rate : 29.970 fps
Color space : YUV
Chroma subsampling : 4:2:0
Bit depth : 8 bits
Scan type : Progressive
Bits/(Pixel*Frame) : 0.094
Stream size : 3.26 GiB (98%)

Audio
ID : 2
Format : AAC
Format profile : LC
Codec ID : 40
Duration : 3h 0mn
Bit rate mode : Variable
Bit rate : 58.0 Kbps
Maximum bit rate : 117 Kbps
Channel(s) : 2 channels
Channel positions : Front: L R
Sampling rate : 48.0 KHz
Compression mode : Lossy
Stream size : 74.9 MiB (2%)

 

 

 

 

 

 

 

 

 

 

Watch Teddy Hart Reflections Shoot Interview November 2017 720P

 

 

 

 

Watch online

 

 

Waiting finish converting video

 

 

Server 1

 

 

 

 

 

 

 

 

 

 

 

 

 

 

 

 

 

 

 

 

 

 

Srver 2

 

 

 

 

 

 

 

 


 

 

 

 

 

 

 

Server 3

 

 

 

 

 

 

 

 


 

 

 

 

 

 

 

Uploaded By Site DX-TV.com

 

 

 

open rar file to see this password

 

 

 

 

The password is : DX-TV.com

 

 

 

 

720p

 

 

 

 

Uploaded.net

 

 

 

 

 

 

http://shrt10.com/7heg0a

 

 

 

 

 

 

 

 

 

 

 

 

rapidgator.net

 

 

 

 

 

 

 

 

 

http://shrt10.com/1Z6M

 

 

 

 

 

 

 

Watch Teddy Hart Reflections Shoot Interview November 2017 720P

Support HVIPS

Please Disable Ad-Block To View This site. just help us to continue this work