Watch RPW NJPW 2017 11 09 Global Wars UK Night 1 WEB /720p

Watch RPW NJPW 2017 11 09 Global Wars UK Night 1 WEB /720p

 

 

 

 

 

 

wwe

 

 

 

 

Complete name : RPW.NJPW.2017.11.09.Global.Wars.UK.Night.1.WEB.h264-iNDYHEEL.mp4
Format : MPEG-4
Format profile : Base Media
Codec ID : isom
File size : 1.78 GiB
Duration : 2h 39mn
Overall bit rate : 1 598 Kbps
Writing application : Lavf57.20.100

Video
ID : 1
Format : AVC
Codec ID : avc1
Duration : 2h 39mn
Bit rate mode : Variable
Bit rate : 1 494 Kbps
Width : 854 pixels
Height : 480 pixels
Display aspect ratio : 16:9
Frame rate mode : Constant
Frame rate : 29.970 fps
Color space : YUV
Chroma subsampling : 4:2:0
Bit depth : 8 bits
Scan type : Progressive
Bits/(Pixel*Frame) : 0.122

Audio
ID : 2
Format : AAC
Format profile : LC
Codec ID : 40
Duration : 2h 39mn
Bit rate mode : Variable
Bit rate : 96.0 Kbps
Maximum bit rate : 114 Kbps
Channel(s) : 2 channels
Channel positions : Front: L R
Sampling rate : 48.0 KHz
Compression mode : Lossy
Stream size : 111 MiB (6%)

 

 

 

 

 

 

 
Complete name : RPW.NJPW.2017.11.09.Global.Wars.UK.Night.1.720p.WEB.h264-iNDYHEEL.mp4
Format : MPEG-4
Format profile : Base Media
Codec ID : isom
File size : 2.99 GiB
Duration : 2h 39mn
Overall bit rate : 2 692 Kbps
Writing application : Lavf57.20.100

Video
ID : 1
Format : AVC
Codec ID : avc1
Duration : 2h 39mn
Bit rate mode : Variable
Bit rate : 2 587 Kbps
Width : 1 280 pixels
Height : 720 pixels
Display aspect ratio : 16:9
Frame rate mode : Constant
Frame rate : 29.970 fps
Color space : YUV
Chroma subsampling : 4:2:0
Bit depth : 8 bits
Scan type : Progressive
Bits/(Pixel*Frame) : 0.094
Stream size : 2.88 GiB (96%)

Audio
ID : 2
Format : AAC
Format profile : LC
Codec ID : 40
Duration : 2h 39mn
Bit rate mode : Variable
Bit rate : 96.0 Kbps
Maximum bit rate : 114 Kbps
Channel(s) : 2 channels
Channel positions : Front: L R
Sampling rate : 48.0 KHz
Compression mode : Lossy
Stream size : 111 MiB (4%)

 

 

 

 

 

 

 

 

 

 

 

Watch RPW NJPW 2017 11 09 Global Wars UK Night 1 WEB /720p

 

 

 

 

Watch online

 

 

Waiting finish converting video

 

 

Server 1

 

 

 

 

 

 

 

 

 

 

 

 

 

 

 

 

Srver 2

 

 

 

 

 

 

 

 

 


 

 

 

 

 

 

 

Server 3

 

 

 

 

 

 

 


 

 

 

 

 

 

 

 

 

Uploaded By Site DX-TV.com

 

 

 

open rar file to see this password

 

 

 

 

The password is : DX-TV.com

 

 

 

 

400p+1080p

 

 

 

 

Uploaded.net

 

 

 

 

http://shrt10.com/1sm78tKM

 

 

 

 

http://shrt10.com/CVrcT

 

 

 

 

 

 

 

 

 

rapidgator.net

 

 

 

 

 

http://shrt10.com/ds3L

 

 

 

 

http://shrt10.com/tgO6qjF

 

 

 

 

 

 

Watch RPW NJPW 2017 11 09 Global Wars UK Night 1 WEB /720p

Support HVIPS

Please Disable Ad-Block To View This site. just help us to continue this work