Watch RPW 2018 03 04 Live At The Cockpit 27 WEB iNDYHEEL /720p

Watch RPW 2018 03 04 Live At The Cockpit 27 WEB iNDYHEEL /720p

 

 

 

s

 

 

 

wwe

 

 

 

 

 

 

Complete name : RPW.2018.03.04.Live.At.The.Cockpit.27.WEB.h264-iNDYHEEL.mp4
Format : MPEG-4
Format profile : Base Media
Codec ID : isom
File size : 1.63 GiB
Duration : 2h 25mn
Overall bit rate : 1 602 Kbps
Writing application : Lavf58.2.103

Video
ID : 1
Format : AVC
Format/Info : Advanced Video Codec
Codec ID : avc1
Codec ID/Info : Advanced Video Coding
Duration : 2h 25mn
Bit rate mode : Variable
Bit rate : 1 495 Kbps
Width : 854 pixels
Height : 480 pixels
Display aspect ratio : 16:9
Frame rate mode : Constant
Frame rate : 29.970 fps
Color space : YUV
Chroma subsampling : 4:2:0
Bit depth : 8 bits
Scan type : Progressive
Bits/(Pixel*Frame) : 0.122
Stream size : 1.52 GiB (93%)

Audio
ID : 2
Format : AAC
Format/Info : Advanced Audio Codec
Format profile : LC
Codec ID : 40
Duration : 2h 25mn
Bit rate mode : Variable
Bit rate : 100 Kbps
Maximum bit rate : 107 Kbps
Channel(s) : 2 channels
Channel positions : Front: L R
Sampling rate : 48.0 KHz
Compression mode : Lossy
Stream size : 104 MiB (6%)

 

 

 

 

 

 

 

 
– Legion Of Lords Vs Never Say Die

– Adam Brooks Vs Dan Magee

– Josh Bodom/Zack Gibson Vs Team White Wolf (A-Kid & Adam Chase)

Undisputed British Cruiserweight Championship

– No Fun Dunne Vs Kurtis Chapman (c)

– CCK (Travis Banks & Chris Brookes) Vs Aussie Open (Kyle Fletcher & Mark Davis)

– David Starr Vs Jody Fleisch

– Zack Sabre Jr Vs El Phantasmo
 

 

 

 

 

 

 

 

 

 

Watch RPW 2018 03 04 Live At The Cockpit 27 WEB iNDYHEEL /720p

 

 

 

 

Watch online

 

 

Waiting finish converting video

 

 

Server 1

 

 

 

 

 

 

 

 

 

 

 

 

 

 

 

Server 2

 

 

 

 

 

 

 


 

 

 

 

 

 

Uploaded By Site DX-TV.com

 

 

 

open rar file to see this password

 

 

 

 

The password is : DX-TV.com

 

 

 

 

400p+720p

 

 

 

 

 

Uploaded.net + rapidgator.net

 

 

 

 

 

 

http://shrt10.com/d55AbESs

 

 

 

http://shrt10.com/ElhCn

 

 

 

http://shrt10.com/NBYtu

 

 

http://shrt10.com/tIqH4

 

 

 

 

 

 

 

Watch RPW 2018 03 04 Live At The Cockpit 27 WEB iNDYHEEL /720p