Watch RPW 2018 01 20 High Stakes WEB iNDYHEEL /720p

Watch RPW 2018 01 20 High Stakes WEB iNDYHEEL /720p

 

 

 

 

 

 

wwe

 

 

 

 

 

 

 

 

 

Undisputed British Cruiserweight Championship
– Rob Lias Vs Kurtis Chapman (c)

– Josh Bodom & Zack Gibson Vs CCK (Travis Banks & Chris Brookes)

– Adam Brooks Vs Ryan Smile

– Los Ingobernables De Japon (Evil & Sanada) Vs Aussie Open (Kyle Fletcher & Mark Davis)

Undisputed British Womens Championship
– Bea Priestley Vs Millie McKenzie Vs Jinny (c)

– Mark Andrews Vs Will Ospreay

Undisputed British Tag Team Championships
– Suzuki Gun (Zack Sabre Jr & Minoru Suzuki) Vs. Moustache Mountain (Trent Seven & Tyler Bate) (c)

 

 

 

 

 

 

 

 

 

 
Complete name : RPW.2018.01.20.High.Stakes.720p.WEB.h264-iNDYHEEL.mp4
Format : MPEG-4
Format profile : Base Media
Codec ID : isom
File size : 2.81 GiB
Duration : 2h 29mn
Overall bit rate : 2 686 Kbps
Writing application : Lavf58.2.103

Video
ID : 1
Format : AVC
Format/Info : Advanced Video Codec
Codec ID : avc1
Codec ID/Info : Advanced Video Coding
Duration : 2h 29mn
Bit rate mode : Variable
Bit rate : 2 583 Kbps
Width : 1 280 pixels
Height : 720 pixels
Display aspect ratio : 16:9
Frame rate mode : Constant
Frame rate : 29.970 fps
Color space : YUV
Chroma subsampling : 4:2:0
Bit depth : 8 bits
Scan type : Progressive
Bits/(Pixel*Frame) : 0.094
Stream size : 2.71 GiB (96%)

Audio
ID : 2
Format : AAC
Format/Info : Advanced Audio Codec
Format profile : LC
Codec ID : 40
Duration : 2h 29mn
Bit rate mode : Variable
Bit rate : 96.0 Kbps
Maximum bit rate : 106 Kbps
Channel(s) : 2 channels
Channel positions : Front: L R
Sampling rate : 48.0 KHz
Compression mode : Lossy
Stream size : 103 MiB (4%)

 

 

 

 

 

 

 

 

 

 

 

Watch RPW 2018 01 20 High Stakes WEB iNDYHEEL /720p

 

 

 

 

Watch online

 

 

Waiting finish converting video

 

 

Server 1

 

 

 

 

 

 

 

 

 

 

 

 

 

 

 

 

 

 

 

 

 

 

 

 

Srver 2

 

 

 

 

 

 

 

 

 

 

 

 

 

 

 

 

 

 

 

 

 

 

Uploaded By Site DX-TV.com

 

 

 

open rar file to see this password

 

 

 

 

The password is : DX-TV.com

 

 

 

 

400p+720p

 

 

 

 

Uploaded.net + rapidgator.net

 

 

 

 

 

 

 

 

http://shrt10.com/GL0bm

 

 

http://shrt10.com/mjwUp4P

 

 

http://shrt10.com/ArspcMHq

 

 

http://shrt10.com/QTVLA

 

 

 

 

 

 

 

 

 

 

 

 

 

 

 

 

Watch RPW 2018 01 20 High Stakes WEB iNDYHEEL /720p