Watch RPW 2017 12 08 Uprising WEB iNDYHEEL /720p

Watch RPW 2017 12 08 Uprising WEB iNDYHEEL /720p

 

 

 

 

 

 

wwe

 

 

 

 

 

 

 

 
Complete name : RPW.2017.12.08.Uprising.720p.WEB.h264-iNDYHEEL.mp4
Format : MPEG-4
Format profile : Base Media
Codec ID : isom
File size : 3.79 GiB
Duration : 3h 21mn
Overall bit rate : 2 688 Kbps
Writing application : Lavf58.2.103

Video
ID : 1
Format : AVC
Format/Info : Advanced Video Codec
Codec ID : avc1
Codec ID/Info : Advanced Video Coding
Duration : 3h 21mn
Bit rate mode : Variable
Bit rate : 2 587 Kbps
Width : 1 280 pixels
Height : 720 pixels
Display aspect ratio : 16:9
Frame rate mode : Constant
Frame rate : 29.970 fps
Color space : YUV
Chroma subsampling : 4:2:0
Bit depth : 8 bits
Scan type : Progressive
Bits/(Pixel*Frame) : 0.094
Stream size : 3.64 GiB (96%)

Audio
ID : 2
Format : AAC
Format/Info : Advanced Audio Codec
Format profile : LC
Codec ID : 40
Duration : 3h 21mn
Bit rate mode : Constant
Bit rate : 93.8 Kbps
Channel(s) : 2 channels
Channel positions : Front: L R
Sampling rate : 48.0 KHz
Compression mode : Lossy
Stream size : 135 MiB (3%)

 

 

 

 

 
Complete name : RPW.2017.12.08.Uprising.WEB.h264-iNDYHEEL.mp4
Format : MPEG-4
Format profile : Base Media
Codec ID : isom
File size : 2.25 GiB
Duration : 3h 21mn
Overall bit rate : 1 596 Kbps
Writing application : Lavf58.2.103

Video
ID : 1
Format : AVC
Format/Info : Advanced Video Codec
Codec ID : avc1
Codec ID/Info : Advanced Video Coding
Duration : 3h 21mn
Bit rate mode : Variable
Bit rate : 1 495 Kbps
Width : 854 pixels
Height : 480 pixels
Display aspect ratio : 16:9
Frame rate mode : Constant
Frame rate : 29.970 fps
Color space : YUV
Chroma subsampling : 4:2:0
Bit depth : 8 bits
Scan type : Progressive
Bits/(Pixel*Frame) : 0.122
Stream size : 2.11 GiB (94%)
Audio
ID : 2
Format : AAC
Format/Info : Advanced Audio Codec
Format profile : LC
Codec ID : 40
Duration : 3h 21mn
Bit rate mode : Constant
Bit rate : 93.8 Kbps
Channel(s) : 2 channels
Channel positions : Front: L R
Sampling rate : 48.0 KHz
Compression mode : Lossy
Stream size : 135 MiB (6%)

 

 

 

 

 

 

 

 

 

 

Watch RPW 2017 12 08 Uprising WEB iNDYHEEL /720p

 

 

 

 

Watch online

 

 

Waiting finish converting video

 

 

Server 1

 

 

 

 

 

 

 

 

 

 

 

 

 

 

 

 

 

 

 

 

 

 

 

 

 

Srver 2

 

 

 

 

 

 

 

 

 

 

 

 


 

 

 

 

 

 

 

 

 

Server 3

 

 

 

 

 

 

 

 

 

 

 

 

 

 


 

 

 

 

 

 

 

 

Uploaded By Site DX-TV.com

 

 

 

open rar file to see this password

 

 

 

 

The password is : DX-TV.com

 

 

 

 

400p+720p

 

 

 

 

 

rapidgator.net

 

 

 

 

 

 

 

http://shrt10.com/1rUI

 

 

 

 

http://shrt10.com/WDQsfbFR

 

 

 

 

 

 

 

 

 

Watch RPW 2017 12 08 Uprising WEB iNDYHEEL /720p