Watch RPW 2017 11 05 Live At The Cockpit 22 WEB /720p

Watch RPW 2017 11 05 Live At The Cockpit 22 WEB /720p

 

 

 

 

 

 

wwe

 

 

 

 

 

Complete name : RPW.2017.11.05.Live.At.The.Cockpit.22.WEB.h264-iNDYHEEL.mp4
Format : MPEG-4
Format profile : Base Media
Codec ID : isom
File size : 1.63 GiB
Duration : 2h 26mn
Overall bit rate : 1 589 Kbps
Writing application : Lavf57.20.100

Video
ID : 1
Format : AVC
Codec ID : avc1
Duration : 2h 26mn
Bit rate mode : Variable
Bit rate : 1 495 Kbps
Width : 854 pixels
Height : 480 pixels
Display aspect ratio : 16:9
Frame rate mode : Constant
Frame rate : 29.970 fps
Color space : YUV
Chroma subsampling : 4:2:0
Bit depth : 8 bits
Scan type : Progressive
Bits/(Pixel*Frame) : 0.122
Stream size : 1.53 GiB (94%)

Audio
ID : 2
Format : AAC
Format profile : LC
Codec ID : 40
Duration : 2h 26mn
Bit rate mode : Variable
Bit rate : 87.4 Kbps
Maximum bit rate : 91.5 Kbps
Channel(s) : 2 channels
Channel positions : Front: L R
Sampling rate : 48.0 KHz
Compression mode : Lossy
Stream size : 91.8 MiB (6%)

 

 

 

 

 

 
Complete name : RPW.2017.11.05.Live.At.The.Cockpit.22.720p.WEB.h264-iNDYHEEL.mp4
Format : MPEG-4
Format profile : Base Media
Codec ID : isom
File size : 2.75 GiB
Duration : 2h 26mn
Overall bit rate : 2 684 Kbps
Writing application : Lavf57.20.100

Video
ID : 1
Format : AVC
Codec ID : avc1
Codec ID/Info : Advanced Video Coding
Duration : 2h 26mn
Bit rate mode : Variable
Bit rate : 2 590 Kbps
Width : 1 280 pixels
Height : 720 pixels
Display aspect ratio : 16:9
Frame rate mode : Constant
Frame rate : 29.970 fps
Color space : YUV
Chroma subsampling : 4:2:0
Bit depth : 8 bits
Scan type : Progressive
Bits/(Pixel*Frame) : 0.094
Stream size : 2.65 GiB (96%)

Audio
ID : 2
Format : AAC
Format profile : LC
Codec ID : 40
Duration : 2h 26mn
Bit rate mode : Variable
Bit rate : 87.4 Kbps
Maximum bit rate : 91.5 Kbps
Channel(s) : 2 channels
Channel positions : Front: L R
Sampling rate : 48.0 KHz
Compression mode : Lossy
Stream size : 91.8 MiB (3%)

 

 

 

 

 

 

 

 

 

 

 

Watch RPW 2017 11 05 Live At The Cockpit 22 WEB /720p

 

 

 

 

Watch online

 

 

Waiting finish converting video

 

 

Server 1

 

 

 

 

 

 

 

 

 

 

 

 

 

 

 

 

 

 

Srver 2

 

 

 

 

 

 

 

 

 

 


 

 

 

 

Server 3

 

 

 

 

 

 

 


 

 

 

 

 

 

 

Uploaded By Site DX-TV.com

 

 

 

open rar file to see this password

 

 

 

 

The password is : DX-TV.com

 

 

 

 

400p+720p

 

 

 

 

Uploaded.net

 

 

 

 

 

http://shrt10.com/6bdVEh

 

 

 

 

http://shrt10.com/LnjsAgI

 

 

 

 

 

 

 

 

rapidgator.net

 

 

 

 

 

http://shrt10.com/4VQAk

 

 

 

http://shrt10.com/JH6sVKU

 

 

 

 

 

 

 

Watch RPW 2017 11 05 Live At The Cockpit 22 WEB /720p

Support HVIPS

Please Disable Ad-Block To View This site. just help us to continue this work