Watch RPW 2017 10 22 Live In Leamington WEB /720p

Watch RPW 2017 10 22 Live In Leamington WEB /720p

 

 

 

 

 

 

wwe

 

 

 

 

 

 
Complete name : RPW.2017.10.22.Live.In.Leamington.WEB.h264-iNDYHEEL.mp4
Format : MPEG-4
Format profile : Base Media
Codec ID : isom
File size : 1.47 GiB
Duration : 2h 12mn
Overall bit rate : 1 591 Kbps
Writing application : Lavf57.20.100

Video
ID : 1
Format : AVC
Codec ID : avc1
Duration : 2h 12mn
Bit rate mode : Variable
Bit rate : 1 495 Kbps
Width : 854 pixels
Height : 480 pixels
Display aspect ratio : 16:9
Frame rate mode : Constant
Frame rate : 29.970 fps
Color space : YUV
Chroma subsampling : 4:2:0
Bit depth : 8 bits
Scan type : Progressive
Bits/(Pixel*Frame) : 0.122
Stream size : 1.38 GiB (94%)

Audio
ID : 2
Format : AAC
Format profile : LC
Codec ID : 40
Duration : 2h 12mn
Bit rate mode : Variable
Bit rate : 89.4 Kbps
Maximum bit rate : 99.0 Kbps
Channel(s) : 2 channels
Channel positions : Front: L R
Sampling rate : 48.0 KHz
Compression mode : Lossy
Stream size : 84.5 MiB (6%)

 

 

 

 

 

 
Complete name : RPW.2017.10.22.Live.In.Leamington.720p.WEB.h264-iNDYHEEL.mp4
Format : MPEG-4
Format profile : Base Media
Codec ID : isom
File size : 2.48 GiB
Duration : 2h 12mn
Overall bit rate : 2 686 Kbps
Writing application : Lavf57.20.100

Video
ID : 1
Format : AVC
Duration : 2h 12mn
Bit rate mode : Variable
Bit rate : 2 590 Kbps
Width : 1 280 pixels
Height : 720 pixels
Display aspect ratio : 16:9
Frame rate mode : Constant
Frame rate : 29.970 fps
Color space : YUV
Chroma subsampling : 4:2:0
Bit depth : 8 bits
Scan type : Progressive
Bits/(Pixel*Frame) : 0.094

Audio
ID : 2
Format : AAC
Format profile : LC
Codec ID : 40
Duration : 2h 12mn
Bit rate mode : Variable
Bit rate : 89.4 Kbps
Maximum bit rate : 99.0 Kbps
Channel(s) : 2 channels
Channel positions : Front: L R
Sampling rate : 48.0 KHz
Compression mode : Lossy
Stream size : 84.5 MiB (3%)

 

 

 

 

 

 

 

 

 

 

 

Watch RPW 2017 10 22 Live In Leamington WEB /720p

 

 

 

 

Watch online

 

 

Waiting finish converting video

 

 

Server 1

 

 

 

 

 

 

 

 

 

 

 

 

 

 

 

 

 

 

 

 

 

 

Server 2

 

 

 

 

 

 

 

 

 

 

 

 

 


 

 

 

 

 

 

Uploaded By Site DX-TV.com

 

 

 

open rar file to see this password

 

 

 

 

The password is : DX-TV.com

 

 

 

 

400p+720p

 

 

 

 

Uploaded.net

 

 

 

 

 

 

http://shrt10.com/3JQOtV73

 

 

 

 

 

http://shrt10.com/MZUloo

 

 

 

 

 

 

rapidgator.net

 

 

 

 

 

 

http://shrt10.com/Fl4HMY

 

 

 

 

http://shrt10.com/4tljs

 

 

 

 

 

Watch RPW 2017 10 22 Live In Leamington WEB /720p

Support HVIPS

Please Disable Ad-Block To View This site. just help us to continue this work