Watch RPW 2017 10 15 Live In Cardiff WEB /720p

Watch RPW 2017 10 15 Live In Cardiff WEB /720p

 

 

 

 

 

 

 

 

 

 

 

 

wwe

 

 

 

 

 

 

 

 

Complete name : RPW.2017.10.15.Live.In.Cardiff.WEB.h264-iNDYHEEL.mp4
Format : MPEG-4
Format profile : Base Media
Codec ID : isom
File size : 1.13 GiB
Duration : 1h 41mn
Overall bit rate : 1 598 Kbps
Writing application : Lavf57.20.100

Video
ID : 1
Format : AVC
Codec ID : avc1
Duration : 1h 41mn
Bit rate mode : Variable
Bit rate : 1 495 Kbps
Width : 854 pixels
Height : 480 pixels
Display aspect ratio : 16:9
Frame rate mode : Constant
Frame rate : 29.970 fps
Color space : YUV
Chroma subsampling : 4:2:0
Bit depth : 8 bits
Scan type : Progressive
Bits/(Pixel*Frame) : 0.122

Audio
ID : 2
Format : AAC
Format profile : LC
Codec ID : 40
Duration : 1h 41mn
Bit rate mode : Variable
Bit rate : 96.0 Kbps
Maximum bit rate : 108 Kbps
Channel(s) : 2 channels
Channel positions : Front: L R
Sampling rate : 48.0 KHz
Compression mode : Lossy
Stream size : 69.5 MiB (6%)

 

 

 

 

 

 

 

 

 

 

General
Complete name : RPW.2017.10.15.Live.In.Cardiff.720p.WEB.h264-iNDYHEEL.mp4
Format : MPEG-4
Format profile : Base Media
Codec ID : isom
File size : 1.91 GiB
Duration : 1h 41mn
Overall bit rate : 2 692 Kbps
Writing application : Lavf57.20.100

Video
ID : 1
Format settings, ReFrames : 3 frames
Codec ID : avc1
Duration : 1h 41mn
Bit rate mode : Variable
Bit rate : 2 589 Kbps
Width : 1 280 pixels
Height : 720 pixels
Display aspect ratio : 16:9
Frame rate mode : Constant
Frame rate : 29.970 fps
Color space : YUV
Chroma subsampling : 4:2:0
Bit depth : 8 bits
Scan type : Progressive
Bits/(Pixel*Frame) : 0.094

Audio
ID : 2
Format : AAC
Format profile : LC
Codec ID : 40
Duration : 1h 41mn
Bit rate mode : Variable
Bit rate : 96.0 Kbps
Maximum bit rate : 108 Kbps
Channel(s) : 2 channels
Channel positions : Front: L R
Sampling rate : 48.0 KHz
Compression mode : Lossy
Stream size : 69.5 MiB (4%)

 

 

 

 

 

 

 

 

 

 

 

 

 

Watch RPW 2017 10 15 Live In Cardiff WEB /720p

 

 

 

 

 

 

 

Watch online

 

 

 

 

 

Waiting finish converting video

 

 

 

 

 

Server 1

 

 

 

 

 

 

 

 

 

 

 

 

 

 

 

 

 

 

 

 

 

 

 

 

Server 2

 

 

 

 

 

 

 

 

 

 


 

 

 

 

 

 

 

 

 

 

 

 

 

 

Uploaded By Site : Dx-tv.com

 

 

 

 

 

 

Open rar file to see password

 

 

 

 

Password : dx-tv.com

 

 

 

 

 

400p+720p

 

 

 

 

 

Uploaded+rapidgator

 

 

 

 

 

http://shrt10.com/thdNR

 

 

 

 

http://shrt10.com/9LWe

 

 

 

 

http://shrt10.com/ZP5W1eq2

 

 

 

 

http://shrt10.com/Szf4t6

 

 

 

 

 

 

 

Watch RPW 2017 10 15 Live In Cardiff WEB /720p

Support HVIPS

Please Disable Ad-Block To View This site. just help us to continue this work