Watch ROH Wrestling IPPV Elite 2017 11 11 WebDL

Watch ROH Wrestling IPPV Elite 2017 11 11 WebDL

 

 

 

 

 

 

wwe

 

 

 

 

 

 

 

 

Complete name : 11.11.17.ROH.Elite.WebDL.Me4Life.mp4
Format : MPEG-4
Format profile : Base Media
Codec ID : isom
File size : 1.19 GiB
Duration : 2h 53mn
Overall bit rate : 983 Kbps
Video
ID : 1
Format : AVC
Format/Info : Advanced Video Codec
Codec ID : avc1
Codec ID/Info : Advanced Video Coding
Duration : 2h 53mn
Bit rate mode : Variable
Bit rate : 900 Kbps
Width : 640 pixels
Height : 360 pixels
Display aspect ratio : 16:9
Frame rate mode : Variable
Frame rate : 29.970 fps
Minimum frame rate : 29.412 fps
Maximum frame rate : 102.041 fps
Color space : YUV
Chroma subsampling : 4:2:0
Bit depth : 8 bits
Scan type : Progressive
Bits/(Pixel*Frame) : 0.130
Stream size : 1.06 GiB (89%)

Audio
ID : 2
Format : AAC
Format/Info : Advanced Audio Codec
Format profile : LC
Codec ID : 40
Duration : 2h 53mn
Bit rate mode : Constant
Bit rate : 101 Kbps
Channel(s) : 2 channels
Channel positions : Front: L R
Sampling rate : 44.1 KHz
Compression mode : Lossy
Stream size : 125 MiB (10%)

 

 

 

 

 

 

 

 

Watch ROH Wrestling IPPV Elite 2017 11 11 WebDL

 

 

 

 

Watch online

 

 

Waiting finish converting video

 

 

Server 1

 

 

 

 

 

 

 

 

 

 

 

 

 

 

 

 

 

 

 

 

Server 2

 

 

 

 

 

 

 

 


 

 

 

 

 

 

 

 

Srver 3

 

 

 

 

 

 

 

 

 

 


 

 

 

 

 

 

 

 

Uploaded By Site DX-TV.com

 

 

 

open rar file to see this password

 

 

 

 

The password is : DX-TV.com

 

 

 

 

 

 

 

Uploaded.net

 

 

 

 

 

 

 

 

http://shrt10.com/QpcDEKNL

 

 

 

 

 

 

 

rapidgator.net

 

 

 

 

 

 

 

 

http://shrt10.com/0qDt5

 

 

 

 

 

 

Watch ROH Wrestling IPPV Elite 2017 11 11 WebDL

Support HVIPS

Please Disable Ad-Block To View This site. just help us to continue this work