Watch ROH Wrestling 3rd Aug 2018 720p WEBRip TJ

Watch ROH Wrestling 3rd Aug 2018 720p WEBRip TJ

 

 

 

 


 

 

 

dx-tv.com

 

 

 

 

 

Complete name : ROH.Wrestling.3rd.Aug.2018.720p.WEBRip.h264-TJ.mp4
Format : MPEG-4
File size : 1.14 GiB
Duration : 51 min 0 s
Overall bit rate mode : Variable
Overall bit rate : 3 197 kb/s
Encoded date : UTC 2018-08-06 14:52:03
Tagged date : UTC 2018-08-06 14:52:03

Video
ID : 1
Format : AVC
Format/Info : Advanced Video Codec
Codec ID/Info : Advanced Video Coding
Duration : 51 min 0 s
Bit rate : 3 072 kb/s
Width : 1 280 pixels
Height : 720 pixels
Display aspect ratio : 16:9
Frame rate mode : Variable
Frame rate : 29.970 (29970/1000) FPS
Minimum frame rate : 29.960 FPS
Maximum frame rate : 29.970 FPS
Color space : YUV
Chroma subsampling : 4:2:0
Bit depth : 8 bits
Scan type : Progressive
Bits/(Pixel*Frame) : 0.111
Stream size : 1.09 GiB (96%)
Color range : Limited
Color primaries : BT.709
Transfer characteristics : BT.709
Matrix coefficients : BT.709

Audio
ID : 2
Format : AAC
Format/Info : Advanced Audio Codec
Format profile : LC
Codec ID : mp4a-40-2
Duration : 51 min 0 s
Bit rate mode : Variable
Bit rate : 127 kb/s
Channel(s) : 2 channels
Channel positions : Front: L R
Sampling rate : 44.1 kHz
Frame rate : 43.066 FPS (1024 SPF)
Compression mode : Lossy
Stream size : 46.4 MiB (4%)
Title : Stereo / Stereo
Language : English
Default : Yes
Alternate group : 1
Encoded date : UTC 2018-08-06 14:52:03
Tagged date : UTC 2018-08-06 14:52:03

 

 

 

 

 

Watch ROH Wrestling 3rd Aug 2018 720p WEBRip TJ

 

 

 

 

Watch online

 

 

Waiting finish converting video

 

 

Server 1

 

 

 

 

 

 

 

 

 

 

 

 

 

 

 

Server 2

 

 

 

 

 

 

 


 

 

 

 

 

 

 

Uploaded By Site DX-TV.com

 

 

 

open rar file to see this password

 

 

 

 

The password : DX-TV.com

 

 

 

 

 

 

Uploaded.net + rapidgator.net

 

 

 

 

 

 

 

http://shrt10.com/fyqW

 

 

 

 

 
http://shrt10.com/vsyR

 

 

 

 

 

 

 

Watch ROH Wrestling 3rd Aug 2018 720p WEBRip TJ

This site uses Akismet to reduce spam. Learn how your comment data is processed.

Support HVIPS

Please Disable Ad-Block To View This site. just help us to continue this work