Watch ROH Wrestling 2017 12 04 WEBTV Ebi /720p mp4

Watch ROH Wrestling 2017 12 04 WEBTV Ebi /720p mp4

 

 

 

 

 

 

wwe

 

 

 

 

 

 

 

Complete name : ROH.Wrestling.2017.12.04.WEBTV.x264-Ebi.mp4
Format : MPEG-4
Codec ID : mp42
File size : 533 MiB
Duration : 50mn 57s
Overall bit rate : 1 463 Kbps

Video
ID : 1
Format : AVC
Format/Info : Advanced Video Codec
Codec ID : avc1
Codec ID/Info : Advanced Video Coding
Duration : 50mn 57s
Bit rate mode : Variable
Bit rate : 1 300 Kbps
Width : 712 pixels
Height : 400 pixels
Display aspect ratio : 16:9
Frame rate mode : Constant
Frame rate : 29.970 fps
Color space : YUV
Chroma subsampling : 4:2:0
Bit depth : 8 bits
Scan type : Progressive
Bits/(Pixel*Frame) : 0.152
Stream size : 473 MiB (89%)

Audio
ID : 2
Format : AAC
Format profile : LC
Codec ID : 40
Duration : 50mn 57s
Bit rate mode : Variable
Bit rate : 159 Kbps
Channel(s) : 2 channels
Channel positions : Front: L R
Sampling rate : 48.0 KHz
Compression mode : Lossy
Stream size : 58.0 MiB (11%)
Title : Stereo

 

 

 

 

 

 

 
Complete name : ROH.Wrestling.2017.12.04.720p.WEBTV.x264-Ebi.mp4
Format : MPEG-4
Format profile : Base Media / Version 2
Codec ID : mp42
File size : 1.67 GiB
Duration : 50mn 57s
Overall bit rate : 4 689 Kbps

Video
ID : 1
Format : AVC
Format/Info : Advanced Video Codec
Codec ID : avc1
Codec ID/Info : Advanced Video Coding
Duration : 50mn 57s
Bit rate mode : Variable
Bit rate : 4 500 Kbps
Width : 1 280 pixels
Height : 720 pixels
Display aspect ratio : 16:9
Frame rate mode : Constant
Frame rate : 29.970 fps
Color space : YUV
Chroma subsampling : 4:2:0
Bit depth : 8 bits
Scan type : Progressive
Bits/(Pixel*Frame) : 0.163
Stream size : 1.60 GiB (96%)

Audio
ID : 2
Format : AAC
Format/Info : Advanced Audio Codec
Format profile : LC
Codec ID : 40
Duration : 50mn 57s
Bit rate mode : Variable
Bit rate : 192 Kbps
Channel(s) : 2 channels
Channel positions : Front: L R
Sampling rate : 48.0 KHz
Compression mode : Lossy
Stream size : 69.6 MiB (4%)
Title : Stereo

 

 

 

 

 

 

 

 

 

 

Watch ROH Wrestling 2017 12 04 WEBTV Ebi /720p mp4

 

 

 

 

Watch online

 

 

Waiting finish converting video

 

 

Server 1

 

 

 

 

 

 

 

 

 

 

 

 

 

 

 

 

 

 

 

 

Server 2

 

 

 

 

 

 

 

 


 

 

 

 

 

 

 

 

Srver 3

 

 

 

 

 

 

 

 

 


 

 

 

 

 

 

 

 

 

Uploaded By Site DX-TV.com

 

 

 

open rar file to see this password

 

 

 

 

The password is : DX-TV.com

 

 

 

 

400p+720p

 

 

 

Uploaded.net

 

 

 

 

 

 

 

 

http://shrt10.com/NpTEp6B6

 

 

 

http://shrt10.com/nBG8Wyk

 

 

 

 

 

 

 

rapidgator.net

 

 

 

 

 

 

 

 

 

http://shrt10.com/3XBdJyOw

 

 

 

http://shrt10.com/RXgLq

 

 

 

 

 

Watch ROH Wrestling 2017 12 04 WEBTV Ebi /720p mp4

Support HVIPS

Please Disable Ad-Block To View This site. just help us to continue this work