Watch ROH Wrestling 18th Feb 2018 720p WEBRip TJ

Watch ROH Wrestling 18th Feb 2018 720p WEBRip TJ

 

 

 

 

 

 

wwe

 

 

 

 

 

 

 

 
Complete name : ROH.Wrestling.18th.Feb.2018.720p.WEBRip.h264-TJ.mp4
Format : MPEG-4
Format profile : Base Media
Codec ID : isom
File size : 770 MiB
Duration : 51mn 0s
Overall bit rate : 2 111 Kbps
Writing application : Lavf56.40.101

Video
ID : 1
Format : AVC
Format/Info : Advanced Video Codec
Codec ID : avc1
Codec ID/Info : Advanced Video Coding
Duration : 50mn 59s
Bit rate mode : Variable
Bit rate : 1 975 Kbps
Width : 1 280 pixels
Height : 720 pixels
Display aspect ratio : 16:9
Frame rate mode : Constant
Frame rate : 29.970 fps
Color space : YUV
Chroma subsampling : 4:2:0
Bit depth : 8 bits
Scan type : Progressive
Bits/(Pixel*Frame) : 0.072
Stream size : 721 MiB (94%)
Writing library : x264 core 148
Audio
ID : 2
Format : AAC
Format/Info : Advanced Audio Codec
Format profile : LC
Codec ID : 40
Duration : 51mn 0s
Bit rate mode : Constant
Bit rate : 127 Kbps
Channel(s) : 2 channels
Channel positions : Front: L R
Sampling rate : 48.0 KHz
Compression mode : Lossy
Stream size : 46.4 MiB (6%)

 

 

 

 

Watch ROH Wrestling 18th Feb 2018 720p WEBRip TJ

 

 

 

 

Watch online

 

 

Waiting finish converting video

 

 

Server 1

 

 

 

 

 

 

 

 

 

 

 

 

 

 

 

Server 2

 

 

 

 

 

 

 


 

 

 

 

 

Uploaded By Site DX-TV.com

 

 

 

open rar file to see this password

 

 

 

 

The password is : DX-TV.com

 

 

 

 

720p

 

 

 

 

 

Uploaded.net + rapidgator.net

 

 

 

 

 

 

http://shrt10.com/RKvy

 

 

 

 

http://shrt10.com/gRtYvgA9

 

 

 

 

 

 

 

 

 

 

Watch ROH Wrestling 18th Feb 2018 720p WEBRip TJ

Support HVIPS

Please Disable Ad-Block To View This site. just help us to continue this work