Watch ROH Survival Of The Fittest Dallas Day 2 IPPV 2017 11 18 WEB DL

Watch ROH Survival Of The Fittest Dallas Day 2 IPPV 2017 11 18 WEB DL

 

 

 

 

 

 

wwe

 

 

 

 

 

 

 

Complete name : 2017.11.18.ROH.Survival.of.the.Fittest.Dallas.WebRip.Me4Life.mp4
Format : MPEG-4
Format profile : Base Media
Codec ID : isom
File size : 1.57 GiB
Duration : 2h 52mn
Overall bit rate : 1 301 Kbps
Writing application : Lavf55.33.100
Video
ID : 1
Format : AVC
Format/Info : Advanced Video Codec
Codec ID : avc1
Codec ID/Info : Advanced Video Coding
Duration : 3h 1mn
Bit rate mode : Variable
Bit rate : 1 137 Kbps
Nominal bit rate : 1 200 Kbps
Width : 1 200 pixels
Height : 676 pixels
Display aspect ratio : 16:9
Frame rate mode : Variable
Color space : YUV
Chroma subsampling : 4:2:0
Bit depth : 8 bits
Scan type : Progressive
Stream size : 1.44 GiB (92%)
Audio
ID : 2
Format : AAC
Format/Info : Advanced Audio Codec
Format profile : LC
Codec ID : 40
Duration : 2h 52mn
Bit rate mode : Constant
Bit rate : 104 Kbps
Channel(s) : 2 channels
Channel positions : Front: L R
Sampling rate : 44.1 KHz
Compression mode : Lossy
Stream size : 128 MiB (8%)

 

 

 

 

ROH Survival Of The Fittest 2017 
November 18th 2017 
Dallas, Texas, USA 
Gilley’s Club 

Survival Of The Fittest 2017 First Round Match 
Jonathan Gresham vs. Vinny Marseglia 

Survival Of The Fittest 2017 First Round Match 
Flip Gordon vs. TK O’Ryan 

Survival Of The Fittest 2017 First Round Match 
Cheeseburger vs. Matt Taven 

Dark No Disqualification Match 
Deonna Purrazzo vs. Karen Q 

ROH World Tag Team Title Four Corner Survival Match 
The Motor City Machine Guns (Alex Shelley & Chris Sabin) (c) vs. Esfinge & Rey Cometa vs. Silas Young & The Beer City Bruiser vs. The Dawgs (Rhett Titus & Will Ferrara) 

Singles Match 
Josh Woods vs. Marty Scurll 

ROH World Television Title Match 
Kenny King (c) vs. Scorpio Sky 

Tag Team Match 
Dalton Castle & Jay Lethal vs. The Young Bucks (Matt Jackson & Nick Jackson) 

ROH World Title Texas Death Match 
Cody (c) vs. Christopher Daniels 

 

 

 

 

 

 

 

 

 

 

 

 

Watch ROH Survival Of The Fittest Dallas Day 2 IPPV 2017 11 18 WEB DL

 

 

 

 

Watch online

 

 

Waiting finish converting video

 

 

Server 1

 

 

 

 

 

 

 

 

 

 

 

 

 

 

 

 

 

 

 

 

Server 2

 

 

 

 

 

 

 

 

 

 

 


 

 

 

 

 

 

 

 

 

Uploaded By Site DX-TV.com

 

 

 

open rar file to see this password

 

 

 

 

The password is : DX-TV.com

 

 

 

 

 

 

 

 

 

rapidgator.net

 

 

 

 

 

 

 

 

http://shrt10.com/jzxzjJnf

 

 

 

 

 

 

Watch ROH Survival Of The Fittest Dallas Day 2 IPPV 2017 11 18 WEB DL