Watch ROH Survival Of The Fittest 2017 Day 3 2017 11 19 WebRip Me4Life

Watch ROH Survival Of The Fittest 2017 Day 3 2017 11 19 WebRip Me4Life

 

 

 

 

 

 

wwe

 

 

 

 

 

 

Complete name : 2017.11.19.ROH.Survival.of.the.Fittest.Oklahoma.City.WebRip.Me4Life.mp4
Format : MPEG-4
Format profile : Base Media
Codec ID : isom
File size : 1.49 GiB
Duration : 2h 45mn
Overall bit rate : 1 292 Kbps
Video
ID : 1
Format : AVC
Format/Info : Advanced Video Codec
Codec ID : avc1
Codec ID/Info : Advanced Video Coding
Duration : 2h 53mn
Bit rate mode : Variable
Bit rate : 1 138 Kbps
Nominal bit rate : 1 200 Kbps
Width : 1 200 pixels
Height : 676 pixels
Display aspect ratio : 16:9
Frame rate mode : Variable
Color space : YUV
Chroma subsampling : 4:2:0
Bit depth : 8 bits
Scan type : Progressive
Stream size : 1.38 GiB (92%)
Audio
ID : 2
Format : AAC
Format/Info : Advanced Audio Codec
Format profile : LC
Codec ID : 40
Duration : 2h 45mn
Bit rate mode : Constant
Bit rate : 93.4 Kbps
Channel(s) : 2 channels
Channel positions : Front: L R
Sampling rate : 44.1 KHz
Compression mode : Lossy
Stream size : 111 MiB (7%)

 

 

 

 

 

 

 
ROH Survival Of The Fittest 2017
November 19th 2017
Oklahoma City, Oklahoma, USA
Cox Convention Center

Singles Match
Jay Lethal vs. Josh Woods

Singles Match
Cheeseburger vs. Gregory James

Singles Match
Cheeseburger vs. Jay Briscoe

Singles Match
Joey Ryan vs. Kikutaro

Singles Match
Marty Scurll vs. Rhett Titus

Singles Match
Cody vs. The Beer City Bruiser

Dark Match
Deonna Purrazzo vs. Madison Rayne

Singles Match
Christopher Daniels vs. Dalton Castle

Tag Team Match
The Young Bucks vs. The Kingdom

Survival Of The Fittest 2017 Final Match
Flip Gordon vs. Jonathan Gresham vs. Matt Taven vs. Punishment Martinez vs. Shane Taylor vs. Silas Young
 

 

 

 

 

 

 

 

 

 

 

Watch ROH Survival Of The Fittest 2017 Day 3 2017 11 19 WebRip Me4Life

 

 

 

 

Watch online

 

 

Waiting finish converting video

 

 

Server 1

 

 

 

 

 

 

 

 

 

 

 

 

 

 

 

 

 

 

 

 

Server 2

 

 

 

 

 

 

 

 

 

 

 


 

 

 

 

 

 

 

 

 

 

Uploaded By Site DX-TV.com

 

 

 

open rar file to see this password

 

 

 

 

The password is : DX-TV.com

 

 

 

 

720p

 

 

 

 

 

rapidgator.net

 

 

 

 

 

 

 

 

http://shrt10.com/coHB

 

 

 

 

 

 

 

 

 

 

 

 

 

Watch ROH Survival Of The Fittest 2017 Day 3 2017 11 19 WebRip Me4Life

Support HVIPS

Please Disable Ad-Block To View This site. just help us to continue this work