Watch ROH Honor Reigns Supreme IPPV 2018 02 09 WEB DL x264 DX-TV /720p

Watch ROH Honor Reigns Supreme IPPV 2018 02 09 WEB DL x264 DX-TV /720p

 

 

 

 

 

wwe

 

 

 

 

 

 

 
Complete name : ROH.Honor.Reigns.Supreme IPPV 2018-02-09 WEB DL x264 DX-TV.mp4
Format : MPEG-4
Format profile : Base Media / Version 2
Codec ID : mp42
File size : 2.10 GiB
Duration : 2h 59mn
Overall bit rate : 1 669 Kbps
Encoded date : UTC 2018-02-10 08:13:47
Tagged date : UTC 2018-02-10 08:13:47

Video
ID : 1
Format : AVC
Format/Info : Advanced Video Codec
Codec ID : avc1
Codec ID/Info : Advanced Video Coding
Duration : 2h 59mn
Bit rate mode : Variable
Bit rate : 1 500 Kbps
Width : 720 pixels
Height : 480 pixels
Display aspect ratio : 3:2
Frame rate mode : Variable
Frame rate : 30.000 fps
Minimum frame rate : 20.548 fps
Maximum frame rate : 30.000 fps
Standard : NTSC
Color space : YUV
Chroma subsampling : 4:2:0
Bit depth : 8 bits
Scan type : Progressive
Bits/(Pixel*Frame) : 0.145
Stream size : 1.89 GiB (90%)

Audio
ID : 2
Format : AAC
Format/Info : Advanced Audio Codec
Format profile : LC
Codec ID : 40
Duration : 2h 59mn
Bit rate mode : Variable
Bit rate : 160 Kbps
Channel(s) : 2 channels
Channel positions : Front: L R
Sampling rate : 48.0 KHz
Compression mode : Lossy
Stream size : 206 MiB (10%)
Title : Stereo
Encoded date : UTC 2018-02-10 08:13:47
Tagged date : UTC 2018-02-10 08:13:47

 

 

 

 

 

 

 
Title: ROH.2018.02.09.Honor.Reigns.Supreme.720p.WEB.h264-HEEL
Released: 2018.02.09
Source: WEB
Resolution: 1280 x 720 @ 29.970 FPS
Video: H.264 @ 2299 kbps
Audio: AAC @ 132 kbps
Size: 3.07 GB
Runtime: 3h 00mn
 

 

 

 

 

 

 

 

 

 

 

Watch ROH Honor Reigns Supreme IPPV 2018 02 09 WEB DL x264 DX-TV /720p

 

 

 

 

Watch online

 

 

Waiting finish converting video

 

 

Server 1

 

 

 

 

 

 

 

 

 

 

 

 

 

 

 

 

Server 2

 

 

 

 

 

 

 

 

 

 

 

 

 

 

 

 

 

Uploaded By Site DX-TV.com

 

 

 

open rar file to see this password

 

 

 

 

The password is : DX-TV.com

 

 

 

 

400p+720p

 

 

 

 

 

Uploaded.net + rapidgator.net

 

 

 

 

 

http://shrt10.com/JKuOm

 

 

 

http://shrt10.com/o5gDPm

 

 

 

http://shrt10.com/rjO9l

 

 

 

http://shrt10.com/JOOq

 

 

 

 

Watch ROH Honor Reigns Supreme IPPV 2018 02 09 WEB DL x264 DX-TV /720p

Support HVIPS

Please Disable Ad-Block To View This site. just help us to continue this work