Watch ROH 16th Anniversary PPV 720p WEB HEEL / perShow

Watch ROH 16th Anniversary PPV 720p WEB HEEL / perShow

 

 

s

 

 

 

wwe

 

 

 

 

 

 

WOH Championship Tournament 1st Round Match:
Hana Kimura vs Sumie Sakai

WOH Championship Tournament Quarter Final Match:
Brandi Rhodes vs Tenille Dashwood

Title: ROH.16th.Anniversary.Preshow.9th.March.2018.720p.WEBRip.h264-TJ
Source: FITE TV

Video:
Duration: 00:30:59
Container: MP4
Format: AVC
Format Profile: High@L3.1
Resolution: 1280×720 (16:9)
Frame Rate: 29.97 fps
Bit rate: 2285 Kbps

Audio:
Format: AAC
Sample Rate: 48 KHz
Bit rate: 132 Kbps
Channels: 2 (Front: L R)
 

 

 

 

 

 
Complete name : ROH.16th.Anniversary.PPV.720p.WEB.h264-HEEL.mp4
Format : MPEG-4
Format profile : Base Media
Codec ID : isom
File size : 3.01 GiB
Duration : 2h 56mn
Overall bit rate : 2 442 Kbps
Writing application : Lavf58.2.103

Video
ID : 1
Format : AVC
Format/Info : Advanced Video Codec
Codec ID : avc1
Codec ID/Info : Advanced Video Coding
Duration : 2h 56mn
Bit rate mode : Variable
Bit rate : 2 304 Kbps
Width : 1 280 pixels
Height : 720 pixels
Display aspect ratio : 16:9
Frame rate mode : Variable
Frame rate : 30.000 fps
Minimum frame rate : 20.130 fps
Maximum frame rate : 30.303 fps
Color space : YUV
Chroma subsampling : 4:2:0
Bit depth : 8 bits
Scan type : Progressive
Bits/(Pixel*Frame) : 0.083
Stream size : 2.84 GiB (94%)

Audio
ID : 2
Format : AAC
Format/Info : Advanced Audio Codec
Format profile : LC
Codec ID : 40
Duration : 2h 56mn
Bit rate mode : Constant
Bit rate : 130 Kbps
Channel(s) : 2 channels
Channel positions : Front: L R
Sampling rate : 48.0 KHz
Compression mode : Lossy
Stream size : 164 MiB (5%)

 

 

 

 

 

Watch ROH 16th Anniversary PPV 720p WEB HEEL / perShow

 

 

 

 

Watch online

 

 

Waiting finish converting video

 

 

Server 1

 

 

 

 

 

 

 

 

 

 

 

 

 

 

 

 

 

 

 

 

 

 

 

 

 

Server 2

 

 

 

 

 

 

 

 

 

 

 

 

 


 

 

 

 

 

 

Uploaded By Site DX-TV.com

 

 

 

open rar file to see this password

 

 

 

 

The password is : DX-TV.com

 

 

 

 

 

 

Uploaded.net + rapidgator.net

 

 

 

 

 

 

http://shrt10.com/BPouMbg9

 

 

 

http://shrt10.com/nhsIC

 

 

 

http://shrt10.com/0KDAZ5z

 

 

 

http://shrt10.com/9gUQY1

 

 

 

 

 

 

 

 

 

 

 

 

 

 

 

Watch ROH 16th Anniversary PPV 720p WEB HEEL / perShow