Watch RIZIN FF WGP 2017 12 31 Final Round WEB DL DX-TV /720p

Watch RIZIN FF WGP 2017 12 31 Final Round WEB DL DX-TV /720p

 

 

 

 

 

 

wwe

 

 

 

 

 

 
[EVENT]………..: RIZIN FF WGP 2017 12 31 Final Round WEB DL DX-TV mp4
[RELEASED]……..: 2017.12.31
[SOURCE]……….: WEB 720p
[CONTAINER]…….: mp4
[SIZE]…………: 3.60 GB
[Capper Group]….: DX-TV
[Duration]……..: 6 h 40 m
[RESOLUTION]……: 720 x 480 {16:9}@ 30.000 FPS
[VIDEO]………..: x264 @ 1400 kbps
[AUDIO]………..: AAC @ 160 kbps
[language]……..: English
 

 

 

 

 

 

 

 
Complete name : RiZiN.FF.WGP.2017.Final.Round.720p.WEB.h264.mp4
Format : MPEG-4
Format profile : Base Media
Codec ID : isom
File size : 6.53 GiB
Duration : 6h 32mn
Overall bit rate : 2 379 Kbps

Video
ID : 1
Format : AVC
Format/Info : Advanced Video Codec
Codec ID : avc1
Codec ID/Info : Advanced Video Coding
Duration : 6h 32mn
Bit rate mode : Variable
Bit rate : 2 239 Kbps
Width : 1 280 pixels
Height : 720 pixels
Display aspect ratio : 16:9
Frame rate mode : Variable
Frame rate : 29.970 fps
Minimum frame rate : 29.412 fps
Maximum frame rate : 1 000.000 fps
Color space : YUV
Chroma subsampling : 4:2:0
Bit depth : 8 bits
Scan type : Progressive
Bits/(Pixel*Frame) : 0.081
Stream size : 6.14 GiB (94%)

Audio
ID : 2
Format : AAC
Format/Info : Advanced Audio Codec
Format profile : LC
Codec ID : 40
Duration : 6h 32mn
Bit rate mode : Constant
Bit rate : 128 Kbps
Channel(s) : 2 channels
Channel positions : Front: L R
Sampling rate : 48.0 KHz
Compression mode : Lossy
Stream size : 361 MiB (5%)

 

 

 

 

 

 

 

 

 

 

 

Watch RIZIN FF WGP 2017 12 31 Final Round WEB DL DX-TV /720p

 

 

 

 

Watch online

 

 

Waiting finish converting video

 

 

Server 1

 

 

 

 

 

 

 

 

 

 

 

 

 

 

 

 

 

 

 

 

 

 

 

 

 

 

Server 2

 

 

 

 

 

 

 

 

 

 

 

 

 

 

 

 


 

 

 

 

Uploaded By Site DX-TV.com

 

 

 

open rar file to see this password

 

 

 

 

The password is : DX-TV.com

 

 

 

 

400p+720p

 

 

 

 

 

rapidgator.net

 

 

 

 

 

 

 

 

http://shrt10.com/21yuo

 

 

http://shrt10.com/s9dFO4se

 

 

 http://shrt10.com/N7AF

 

 

http://shrt10.com/E5WbfS1b

 

 

http://shrt10.com/lBlAiY

 

 

http://shrt10.com/dmmlSRA

 

 

 

 

 

 

 

 

 

 

 

 

 

Watch RIZIN FF WGP 2017 12 31 Final Round WEB DL DX-TV /720p