Watch RIZIN FF 8 WGP 2017 2nd Round WEB DL DX-TV /720p

Watch RIZIN FF 8 WGP 2017 2nd Round WEB DL DX-TV /720p

 

 

 

 

 

 

wwe

 

 

 

 

 

 

 

 

Complete name : RIZIN.FF.8.WGP.2017.2nd.Round.WEB.DL.DX-TV.mp4
Format : MPEG-4
Format profile : Base Media / Version 2
Codec ID : mp42
File size : 3.88 GiB
Duration : 5h 40mn
Overall bit rate : 1 635 Kbps
Video
ID : 1
Format : AVC
Format/Info : Advanced Video Codec
Codec ID/Info : Advanced Video Coding
Duration : 5h 40mn
Bit rate mode : Variable
Bit rate : 1 499 Kbps
Width : 720 pixels
Height : 480 pixels
Display aspect ratio : 3:2
Frame rate mode : Constant
Frame rate : 29.970 fps
Standard : NTSC
Color space : YUV
Chroma subsampling : 4:2:0
Bit depth : 8 bits
Scan type : Progressive
Bits/(Pixel*Frame) : 0.145
Stream size : 3.56 GiB (92%)
Language : English

Audio
ID : 2
Format : AAC
Format/Info : Advanced Audio Codec
Format profile : LC
Codec ID : 40
Duration : 5h 40mn
Bit rate mode : Constant
Bit rate : 128 Kbps
Channel(s) : 2 channels
Channel positions : Front: L R
Sampling rate : 48.0 KHz
Compression mode : Lossy
Stream size : 311 MiB (8%)
Language : English

 

 

 

 
Complete name : RIZIN.FF.8.WGP.2017.2nd.Round.720p.WEB.DL.x264-ThS.mp4
Format : MPEG-4
Format profile : Base Media
Codec ID : isom
File size : 5.61 GiB
Duration : 5h 40mn
Overall bit rate : 2 363 Kbps
Writing application : Lavf57.71.100

Video
ID : 1
Format : AVC
Format/Info : Advanced Video Codec
Codec ID : avc1
Codec ID/Info : Advanced Video Coding
Duration : 5h 40mn
Bit rate mode : Variable
Bit rate : 2 221 Kbps
Width : 1 280 pixels
Height : 720 pixels
Display aspect ratio : 16:9
Frame rate mode : Variable
Frame rate : 29.970 fps
Minimum frame rate : 28.571 fps
Maximum frame rate : 30.303 fps
Color space : YUV
Chroma subsampling : 4:2:0
Bit depth : 8 bits
Scan type : Progressive
Bits/(Pixel*Frame) : 0.080
Stream size : 5.27 GiB (94%)

Audio
ID : 2
Format : AAC
Format/Info : Advanced Audio Codec
Format profile : LC
Codec ID : 40
Duration : 5h 40mn
Bit rate mode : Constant
Bit rate : 128 Kbps
Channel(s) : 2 channels
Channel positions : Front: L R
Sampling rate : 48.0 KHz
Compression mode : Lossy
Stream size : 312 MiB (5%)

 

 

 

 

 

 

 

 

 

 

 

 

Watch RIZIN FF 8 WGP 2017 2nd Round WEB DL DX-TV /720p

 

 

 

 

Watch online

 

 

Waiting finish converting video

 

 

Server 1

 

 

 

 

 

 

 

 

 

 

 

 

 

 

 

 

 

 

 

 

 

 

 

 

 

 

 

Server 2

 

 

 

 

 

 

 

 

 

 

 

 

 


 

 

 

 

 

 

Uploaded By Site DX-TV.com

 

 

 

open rar file to see this password

 

 

 

 

The password is : DX-TV.com

 

 

 

 

400p+720p

 

 

 

 

 

Uploaded.net + rapidgator.net

 

 

 

 

 

 

 

 

http://shrt10.com/9DvHYfNq

 

http://shrt10.com/q9w2

 

http://shrt10.com/0ec4Tx

 

http://shrt10.com/EMFb

 

http://shrt10.com/edGafNk

 

http://shrt10.com/jTpvej8

 

 

 

 

 

 

 

 

 

 

 

 

 

Watch RIZIN FF 8 WGP 2017 2nd Round WEB DL DX-TV /720p

Tags: , , , , , , , , , , , ,

Support HVIPS

Please Disable Ad-Block To View This site. just help us to continue this work