Watch RF Video Shoot interview David Sammartino 2017

Watch RF Video Shoot interview David Sammartino 2017

 

 

 

 

 

 

wwe

 

 

 

 

 

 

 

 

 

Complete name : David Sammartino shoot interview.mp4
Format : MPEG-4
Format profile : Base Media
Codec ID : isom
File size : 2.46 GiB
Duration : 3h 42mn
Overall bit rate : 1 587 Kbps
Encoded date : UTC 2017-12-24 08:34:10
Tagged date : UTC 2017-12-24 08:34:10

Video
ID : 1
Format : AVC
Format/Info : Advanced Video Codec
Codec ID : avc1
Codec ID/Info : Advanced Video Coding
Duration : 3h 42mn
Bit rate mode : Variable
Bit rate : 1 495 Kbps
Width : 640 pixels
Height : 480 pixels
Display aspect ratio : 4:3
Frame rate mode : Constant
Frame rate : 29.970 fps
Color space : YUV
Chroma subsampling : 4:2:0
Bit depth : 8 bits
Scan type : Progressive
Bits/(Pixel*Frame) : 0.162
Stream size : 2.32 GiB (94%)
Encoded date : UTC 2017-12-24 08:34:10
Tagged date : UTC 2017-12-24 08:34:10

Audio
ID : 2
Format : AAC
Format/Info : Advanced Audio Codec
Format profile : LTP
Codec ID : 40
Duration : 3h 42mn
Bit rate mode : Constant
Bit rate : 85.0 Kbps
Channel(s) : 3 channels
Channel positions : Front: L C R
Sampling rate : 64.0 KHz
Compression mode : Lossy
Stream size : 135 MiB (5%)
Encoded date : UTC 2017-12-24 08:34:10
Tagged date : UTC 2017-12-24 08:34:10

 

 

 

 

 

 

 

Watch RF Video Shoot interview David Sammartino 2017

 

 

Watch online

 

 

Waiting finish converting video

 

 

Server 1

 

 

 

 

 

 

 

 

 

 

 

 

 

 

 

 

 

 

 

 

 

 

 

 

 

Srver 2

 

 

 

 

 

 

 

 

 

 

 

 

 

 

 


 

 

 

 

 

 

 

 

 

 

 

 

 

 

 

 

 

 

Uploaded By Site DX-TV.com

 

 

 

open rar file to see this password

 

 

 

 

The password is : DX-TV.com

 

 

 

 

 

 

 

Uploaded.net + rapidgator.net

 

 

 

 

 

 

 

http://shrt10.com/EQ44bZb

 

 

 

 

 

 

http://shrt10.com/Hgn7d

 

 

 

 

 

 

 

 

 

 

 

 

 

 

 

Watch RF Video Shoot interview David Sammartino 2017

Support HVIPS

Please Disable Ad-Block To View This site. just help us to continue this work