Watch RF Shoot with Santino Marella

Watch RF Shoot with Santino Marella

 

 

 

 

 

 

wwe

 

 

 

 

 

 

 
Complete name : RF – Santino Marella.mp4
Format : MPEG-4
Format profile : Base Media / Version 2
Codec ID : mp42
File size : 984 MiB
Duration : 2h 22mn
Overall bit rate : 968 Kbps
Encoded date : UTC 2017-12-21 23:00:49
Tagged date : UTC 2017-12-21 23:00:49
Writing application : HandBrake 1.0.7 2017040900

Video
ID : 1
Format : hev1
Codec ID : hev1
Duration : 2h 22mn
Bit rate mode : Variable
Bit rate : 827 Kbps
Width : 1 280 pixels
Height : 720 pixels
Display aspect ratio : 16:9
Frame rate mode : Constant
Frame rate : 29.970 fps
Bits/(Pixel*Frame) : 0.030
Stream size : 841 MiB (85%)
Encoded date : UTC 2017-12-21 23:00:49
Tagged date : UTC 2017-12-21 23:00:49

Audio
ID : 2
Format : AAC
Format/Info : Advanced Audio Codec
Format profile : LC
Codec ID : 40
Duration : 2h 22mn
Bit rate mode : Variable
Bit rate : 132.3 Kbps
Channel(s) : 2 channels
Channel positions : Front: L R
Sampling rate : 48.0 KHz
Compression mode : Lossy
Stream size : 137 MiB (14%)
Title : Stereo
Encoded date : UTC 2017-12-21 23:00:49
Tagged date : UTC 2017-12-21 23:00:49

 

 

 

 

 

 

 

 

 

 

 

 

 

 

 

 

 

 

Watch RF Shoot with Santino Marella

 

 

 

 

Watch online

 

 

Waiting finish converting video

 

 

Server 1

 

 

 

 

 

 

 

 

 

 

 

 

 

 

 

 

 

 

 

 

Server 2

 

 

 

 

 

 

 

 

 

 

 


 

 

 

 

 

 

 

 

 

 

Uploaded By Site DX-TV.com

 

 

 

open rar file to see this password

 

 

 

 

The password is : DX-TV.com

 

 

 

 

 

 

rapidgator.net

 

 

 

 

 

 

 

 

 

http://shrt10.com/rcw7Uhqy

 

 

 

 

 

 

 

 

 

 

 

 

Watch RF Shoot with Santino Marella