Watch Progress Wrestling 2018 03 14 Live At The Dome 5 WEB DL x264 DX-TV /720p

Watch Progress Wrestling 2018 03 14 Live At The Dome 5 WEB DL x264 DX-TV /720p

 

 

 

 

 

 

wwe

 

 

 

 

 

 

 

 
Complete name : Progress Wrestling 2018 03 14 Live At The Dome 5 WEB DL x264 DX-TV.mp4
Format : MPEG-4
Format profile : Base Media / Version 2
Codec ID : mp42
File size : 1.39 GiB
Duration : 2h 1mn
Overall bit rate : 1 639 Kbps
Encoded date : UTC 2018-04-02 09:28:55
Tagged date : UTC 2018-04-02 09:28:55

Video
ID : 1
Format : AVC
Format/Info : Advanced Video Codec
Format profile : Main@L3.1
Codec ID : avc1
Codec ID/Info : Advanced Video Coding
Duration : 2h 1mn
Bit rate mode : Variable
Bit rate : 1 500 Kbps
Width : 720 pixels
Height : 480 pixels
Display aspect ratio : 3:2
Frame rate mode : Variable
Frame rate : 29.970 fps
Minimum frame rate : 17.741 fps
Maximum frame rate : 29.970 fps
Standard : NTSC
Color space : YUV
Chroma subsampling : 4:2:0
Bit depth : 8 bits
Scan type : Progressive
Bits/(Pixel*Frame) : 0.145
Stream size : 1.27 GiB (92%)

Audio
ID : 2
Format : AAC
Format/Info : Advanced Audio Codec
Format profile : LC
Codec ID : 40
Duration : 2h 1mn
Bit rate mode : Variable
Bit rate : 128 Kbps
Channel(s) : 2 channels
Channel positions : Front: L R
Sampling rate : 44.1 KHz
Compression mode : Lossy
Stream size : 111 MiB (8%)
Title : Stereo
Encoded date : UTC 2018-04-02 09:28:55
Tagged date : UTC 2018-04-02 09:28:55

 

 

 

 

 

 

 

[EVENT]………..: Progress Wrestling 2018 03 14 Live At The Dome 5 720p WEB DL x264 DX-TV
[RELEASED]……..: 2018.03.14
[SOURCE]……….: WEB DL 1080p WRESTLiNGHDD
[CONTAINER]…….: mkv
[CONTAINER]…….: 2.86 GB
[Capper Group]….: DX-TV
[Duration]……..: 2 h 1 m
[RESOLUTION]……: 1280 x 720 {16:9}@ 25.000 FPS
[VIDEO]………..: H.264 @ 3000 kbps
[AUDIO]………..: AAC @ 160 kbps
[language]……..: English

 

 

 

 

 

 

 

 

 

Watch Progress Wrestling 2018 03 14 Live At The Dome 5 WEB DL x264 DX-TV /720p

 

 

 

 

Watch online

 

 

Waiting finish converting video

 

 

Server 1

 

 

 

 

 

 

 

 

 

 

 

 

 

 

 

 

 

 

 

 

 

 

Server 2

 

 

 

 

 

 

 

 

 

 

 

 

 

 

 

 

 

 

 

Uploaded By Site DX-TV.com

 

 

 

open rar file to see this password

 

 

 

 

The password is : DX-TV.com

 

 

 

 

400p+720p

 

 

 

 

 

Uploaded.net + rapidgator.net

 

 

 

 

 

 

http://shrt10.com/bBcQKM5

 

 

http://shrt10.com/MVqP

 

 

http://shrt10.com/pUxnS

 

 

http://shrt10.com/hmq9

 

 

 

 

 

 

Watch Progress Wrestling 2018 03 14 Live At The Dome 5 WEB DL x264 DX-TV /720p