Watch PROGRESS Wrestling 2018 02 25 Chapter 64 WEB iNDYHEEL /720p

Watch PROGRESS Wrestling 2018 02 25 Chapter 64 WEB iNDYHEEL /720p

 

 

 

s

 

 

 

wwe

 

 

 

 

 

 

Complete name : PROGRESS.Wrestling.2018.02.25.Chapter.64.WEB.h264-iNDYHEEL.mp4
Format : MPEG-4
Format profile : Base Media
Codec ID : isom
File size : 2.03 GiB
Duration : 3h 2mn
Overall bit rate : 1 590 Kbps
Writing application : Lavf58.2.103

Video
ID : 1
Format : AVC
Format/Info : Advanced Video Codec
Codec ID : avc1
Codec ID/Info : Advanced Video Coding
Duration : 3h 2mn
Bit rate mode : Variable
Bit rate : 1 494 Kbps
Width : 854 pixels
Height : 480 pixels
Display aspect ratio : 16:9
Frame rate mode : Constant
Frame rate : 29.970 fps
Color space : YUV
Chroma subsampling : 4:2:0
Bit depth : 8 bits
Scan type : Progressive
Bits/(Pixel*Frame) : 0.122
Stream size : 1.91 GiB (94%)
Audio
ID : 2
Format : AAC
Format/Info : Advanced Audio Codec
Format profile : LC
Codec ID : 40
Duration : 3h 2mn
Bit rate mode : Variable
Bit rate : 89.8 Kbps
Maximum bit rate : 104 Kbps
Channel(s) : 2 channels
Channel positions : Front: L R
Sampling rate : 44.1 KHz
Compression mode : Lossy
Stream size : 117 MiB (6%)

 

 

 

 

 

 

 

 

 
Sexy Starr vs The Anti-Fun Police

Millie McKenzie vs Charlie Morgan w/ Jinny

Mark Davis vs Maverick Mayhew – Natural Progression Series 1st Round

Mark Haskins & Jimmy Havoc w/ Vicky Haskins (c) vs Grizzled Young Veterans – PROGRESS Tag Team Titles

Jonah Rock vs Zack Sabre Jr

Mark Andrews vs Flash Morgan Webster vs Trent Seven vs TK Cooper vs Tyler Bate vs Eddie Dennis vs Pete Dunne vs Chris Brookes – Thunderbastard Match

Travis Banks (c) vs Matt Riddle – PROGRESS World Title

 

 

 

 

 

 

 

 

 

Watch PROGRESS Wrestling 2018 02 25 Chapter 64 WEB iNDYHEEL /720p

 

 

 

 

Watch online

 

 

Waiting finish converting video

 

 

Server 1

 

 

 

 

 

 

 

 

 

 

 

 

 

 

 

 

Server 2

 

 

 

 

 

 


 

 

 

 

 

 

Uploaded By Site DX-TV.com

 

 

 

open rar file to see this password

 

 

 

 

The password is : DX-TV.com

 

 

 

 

400p+720p

 

 

 

 

 

Uploaded.net + rapidgator.net

 

 

 

 

 

 

 

http://shrt10.com/ap1Uzk

 

http://shrt10.com/svtQLOX

 

http://shrt10.com/zch4jr8q

 

http://shrt10.com/0umbKNA

 

 

 

 

 

 

 

 

Watch PROGRESS Wrestling 2018 02 25 Chapter 64 WEB iNDYHEEL /720p