Watch PROGRESS Wrestling 2018 02 11 Chapter 63 WEB iNDYHEEL /720p

Watch PROGRESS Wrestling 2018 02 11 Chapter 63 WEB iNDYHEEL /720p

 

 

 

 

 

wwe

 

 

 

 

 

 

Complete name : PROGRESS.Wrestling.2018.02.11.Chapter.63.WEB.h264-iNDYHEEL.mp4
Format : MPEG-4
Format profile : Base Media
Codec ID : isom
File size : 2.09 GiB
Duration : 3h 8mn
Overall bit rate : 1 590 Kbps
Writing application : Lavf58.2.103

Video
ID : 1
Format : AVC
Format/Info : Advanced Video Codec
Codec ID : avc1
Codec ID/Info : Advanced Video Coding
Duration : 3h 8mn
Bit rate mode : Variable
Bit rate : 1 493 Kbps
Width : 854 pixels
Height : 480 pixels
Display aspect ratio : 16:9
Frame rate mode : Constant
Frame rate : 29.970 fps
Color space : YUV
Chroma subsampling : 4:2:0
Bit depth : 8 bits
Scan type : Progressive
Bits/(Pixel*Frame) : 0.121
Stream size : 1.96 GiB (94%)

Audio
ID : 2
Format : AAC
Format/Info : Advanced Audio Codec
Format profile : LC
Codec ID : 40
Duration : 3h 8mn
Bit rate mode : Variable
Bit rate : 90.7 Kbps
Maximum bit rate : 104 Kbps
Channel(s) : 2 channels
Channel positions : Front: L R
Sampling rate : 44.1 KHz
Compression mode : Lossy
Stream size : 122 MiB (6%)

 

 

 

 

 

 
Chapter 63: Take Me Underground

Show date: 11th February 2018

Spike Trivet vs Drew Parker – Natural Progression Series 1st Round

Toni Storm & Charlie Morgan vs House Of Couture

Flash Morgan Webster vs Mark Andrews

Tyler Bate vs Zack Sabre Jr

The Broduct vs British Strong Style

WALTER vs Mark Davis

Grizzled Young Veterans (c) vs Mark Haskins & Jimmy Havoc w/ Vicky Haskins – PROGRESS Tag Team Titles

Travis Banks (c) vs TK Cooper vs Chris Brookes – PROGRESS World Title
 

 

 

 

 

 

 

 

 

 

 

 

Watch PROGRESS Wrestling 2018 02 11 Chapter 63 WEB iNDYHEEL /720p

 

 

 

 

Watch online

 

 

Waiting finish converting video

 

 

Server 1

 

 

 

 

 

 

 

 

 

 

 

 

 

 

 

 

 

 

 

Server 2

 

 

 

 

 

 

 


 

 

 

 

 

 

Uploaded By Site DX-TV.com

 

 

 

open rar file to see this password

 

 

 

 

The password is : DX-TV.com

 

 

 

 

400p+720p

 

 

 

 

 

Uploaded.net + rapidgator.net

 

 

 

 

 

 

http://shrt10.com/xTjH1C

 

http://shrt10.com/d3WTasKD

 

http://shrt10.com/g9Sc

 

http://shrt10.com/aJcv

 

 

 

 

 

 

 

Watch PROGRESS Wrestling 2018 02 11 Chapter 63 WEB iNDYHEEL /720p