Watch PROGRESS Wrestling 2018 01 28 Chapter 62 WEB iNDYHEEL /720p

Watch PROGRESS Wrestling 2018 01 28 Chapter 62 WEB iNDYHEEL /720p

 

 

 

 

 

 

wwe

 

 

 

 

 

Complete name : xPROGRESS.Wrestling.2018.01.28.Chapter.62.WEB.h264-iNDYHEEL.mp4
Format : MPEG-4
Format profile : Base Media
Codec ID : isom
File size : 2.12 GiB
Duration : 3h 10mn
Overall bit rate : 1 591 Kbps
Writing application : Lavf58.2.103

Video
ID : 1
Format : AVC
Format/Info : Advanced Video Codec
Codec ID : avc1
Codec ID/Info : Advanced Video Coding
Duration : 3h 10mn
Bit rate mode : Variable
Bit rate : 1 493 Kbps
Width : 854 pixels
Height : 480 pixels
Display aspect ratio : 16:9
Frame rate mode : Constant
Frame rate : 29.970 fps
Color space : YUV
Chroma subsampling : 4:2:0
Bit depth : 8 bits
Scan type : Progressive
Bits/(Pixel*Frame) : 0.122
Stream size : 1.99 GiB (94%)

Audio
ID : 2
Format : AAC
Format/Info : Advanced Audio Codec
Format profile : LC
Codec ID : 40
Duration : 3h 10mn
Bit rate mode : Variable
Bit rate : 91.4 Kbps
Maximum bit rate : 104 Kbps
Channel(s) : 2 channels
Channel positions : Front: L R
Sampling rate : 44.1 KHz
Compression mode : Lossy
Stream size : 125 MiB (6%)

 

 

 

 

 

 

 

 
Complete name : PROGRESS.Wrestling.2018.01.28.Chapter.62.720p.WEB.h264-iNDYHEEL.mp4
Format : MPEG-4
Format profile : Base Media
Codec ID : isom
File size : 3.58 GiB
Duration : 3h 10mn
Overall bit rate : 2 685 Kbps
Writing application : Lavf58.2.103

Video
ID : 1
Format : AVC
Format/Info : Advanced Video Codec
Format settings, ReFrames : 3 frames
Codec ID : avc1
Codec ID/Info : Advanced Video Coding
Duration : 3h 10mn
Bit rate mode : Variable
Bit rate : 2 587 Kbps
Width : 1 280 pixels
Height : 720 pixels
Display aspect ratio : 16:9
Frame rate mode : Constant
Frame rate : 29.970 fps
Color space : YUV
Chroma subsampling : 4:2:0
Bit depth : 8 bits
Scan type : Progressive
Bits/(Pixel*Frame) : 0.094
Stream size : 3.45 GiB (96%)

Audio
ID : 2
Format : AAC
Format/Info : Advanced Audio Codec
Format profile : LC
Codec ID : 40
Duration : 3h 10mn
Bit rate mode : Variable
Bit rate : 91.4 Kbps
Maximum bit rate : 104 Kbps
Channel(s) : 2 channels
Channel positions : Front: L R
Sampling rate : 44.1 KHz
Compression mode : Lossy
Stream size : 125 MiB (3%)

 

 

 

 

 

 

 

 

 

 

 

Watch PROGRESS Wrestling 2018 01 28 Chapter 62 WEB iNDYHEEL /720p

 

 

 

 

Watch online

 

 

Waiting finish converting video

 

 

Server 1

 

 

 

 

 

 

 

 

 

 

 

 

 

 

 

 

 

 

 

Server 2

 

 

 

 

 

 

 


 

 

 

 

 

 

 

Uploaded By Site DX-TV.com

 

 

 

open rar file to see this password

 

 

 

 

The password is : DX-TV.com

 

 

 

 

400p+720p

 

 

 

 

 

Uploaded.net + rapidgator.net

 

 

 

 

 

 

http://shrt10.com/AAJ1X8FT

 

 

http://shrt10.com/Om5x1

 

 

 

http://shrt10.com/bmUt1M7

 

 

http://shrt10.com/uIn3qD0

 

 

 

 

 

Watch PROGRESS Wrestling 2018 01 28 Chapter 62 WEB iNDYHEEL /720p

Support HVIPS

Please Disable Ad-Block To View This site. just help us to continue this work