Watch PROGRESS Wrestling 2017 10 02 Revelations Of Divine Love WEB /720p

Watch PROGRESS Wrestling 2017 10 02 Revelations Of Divine Love WEB /720p

 

 

 

 

 

 

wwe

 

 

 

 

 

Complete name : PROGRESS.Wrestling.2017.10.02.Revelations.Of.Divine.Love.WEB.h264-iNDYHEEL.mp4
Format : MPEG-4
Format profile : Base Media
Codec ID : isom
File size : 1.37 GiB
Duration : 2h 2mn
Overall bit rate : 1 602 Kbps
Writing application : Lavf57.20.100

Video
ID : 1
Format : AVC
Format settings, ReFrames : 3 frames
Codec ID : avc1
Duration : 2h 2mn
Bit rate mode : Variable
Bit rate : 1 495 Kbps
Width : 854 pixels
Height : 480 pixels
Display aspect ratio : 16:9
Frame rate mode : Constant
Frame rate : 29.970 fps
Color space : YUV
Chroma subsampling : 4:2:0
Bit depth : 8 bits
Scan type : Progressive
Bits/(Pixel*Frame) : 0.122

Audio
ID : 2
Format : AAC
Format profile : LC
Codec ID : 40
Duration : 2h 2mn
Bit rate mode : Constant
Bit rate : 99.8 Kbps
Channel(s) : 2 channels
Channel positions : Front: L R
Sampling rate : 44.1 KHz
Compression mode : Lossy
Stream size : 87.7 MiB (6%)

 

 

 

 

 

 

Complete name : PROGRESS.Wrestling.2017.10.02.Revelations.Of.Divine.Love.720p.WEB.h264-iNDYHEEL.mp4
Format : MPEG-4
Format profile : Base Media
Codec ID : isom
File size : 2.31 GiB
Duration : 2h 2mn
Overall bit rate : 2 696 Kbps
Writing application : Lavf57.20.100

Video
ID : 1
Format : AVC
Format settings, ReFrames : 3 frames
Codec ID : avc1
Duration : 2h 2mn
Bit rate mode : Variable
Bit rate : 2 589 Kbps
Width : 1 280 pixels
Height : 720 pixels
Display aspect ratio : 16:9
Frame rate mode : Constant
Frame rate : 29.970 fps
Color space : YUV
Chroma subsampling : 4:2:0
Bit depth : 8 bits
Scan type : Progressive
Bits/(Pixel*Frame) : 0.094

Audio
ID : 2
Format : AAC
Format profile : LC
Codec ID : 40
Duration : 2h 2mn
Bit rate mode : Constant
Bit rate : 99.8 Kbps
Channel(s) : 2 channels
Channel positions : Front: L R
Sampling rate : 44.1 KHz
Compression mode : Lossy
Stream size : 87.7 MiB (4%)

 

 

 

 

 

 

 

 

 

 

 

 

Watch PROGRESS Wrestling 2017 10 02 Revelations Of Divine Love WEB /720p

 

 

 

 

Watch online

 

 

Waiting finish converting video

 

 

Server 1

 

 

 

 

 

 

 

 

 

 

 

 

 

 

 

 

 

 

 

Server 2

 

 

 

 

 

 

 

 

 

 

 


 

 

 

 

 

 

 

 

 

Uploaded By Site DX-TV.com

 

 

 

open rar file to see this password

 

 

 

 

The password is : DX-TV.com

 

 

 

 

400p+720p

 

 

 

 

Uploaded.net

 

 

 

 

 

http://shrt10.com/4bCAzcbW

 

 

 

 

http://shrt10.com/7L4FY

 

 

 

 

 

 

 

 

rapidgator.net

 

 

 

 

 

http://shrt10.com/osMGcF6f

 

 

 

http://shrt10.com/lzr2V

 

 

 

 

 

 

 

Watch PROGRESS Wrestling 2017 10 02 Revelations Of Divine Love WEB /720p

Support HVIPS

Please Disable Ad-Block To View This site. just help us to continue this work