Watch PROGRESS Originals Travis Banks Championship Pride 2017 10 18 /720p

Watch PROGRESS Originals Travis Banks Championship Pride 2017 10 18 /720p

 

 

 

 

 

 

wwe

 

 

 

 

 

 

 
Complete name : PROGRESS.Originals.Travis.Banks.Championship.Pride.WEB.h264-iNDYHEEL.mp4
Format : MPEG-4
Format profile : Base Media
Codec ID : isom
File size : 222 MiB
Duration : 19mn 56s
Overall bit rate : 1 555 Kbps
Writing application : Lavf57.20.100

Video
ID : 1
Format : AVC
Codec ID : avc1
Duration : 19mn 56s
Bit rate mode : Variable
Bit rate : 1 485 Kbps
Width : 854 pixels
Height : 480 pixels
Display aspect ratio : 16:9
Frame rate mode : Constant
Frame rate : 29.970 fps
Color space : YUV
Chroma subsampling : 4:2:0
Bit depth : 8 bits
Scan type : Progressive
Bits/(Pixel*Frame) : 0.121

Audio
ID : 2
Format : AAC
Format profile : LC
Codec ID : 40
Duration : 19mn 56s
Bit rate mode : Variable
Bit rate : 63.0 Kbps
Maximum bit rate : 119 Kbps
Channel(s) : 2 channels
Channel positions : Front: L R
Sampling rate : 44.1 KHz
Compression mode : Lossy
Stream size : 8.99 MiB (4%)

 

 

 

 

Complete name : PROGRESS.Originals.Travis.Banks.Championship.Pride.720p.WEB.h264-iNDYHEEL.mp4
Format : MPEG-4
Format profile : Base Media
Codec ID : isom
File size : 377 MiB
Duration : 19mn 56s
Overall bit rate : 2 644 Kbps
Writing application : Lavf57.20.100

Video
ID : 1
Format : AVC
Codec ID : avc1
Duration : 19mn 56s
Bit rate mode : Variable
Bit rate : 2 574 Kbps
Width : 1 280 pixels
Height : 720 pixels
Display aspect ratio : 16:9
Frame rate mode : Constant
Frame rate : 29.970 fps
Color space : YUV
Chroma subsampling : 4:2:0
Bit depth : 8 bits
Scan type : Progressive
Bits/(Pixel*Frame) : 0.093

Audio
ID : 2
Format : AAC
Format profile : LC
Codec ID : 40
Duration : 19mn 56s
Bit rate mode : Variable
Bit rate : 63.0 Kbps
Maximum bit rate : 119 Kbps
Channel(s) : 2 channels
Channel positions : Front: L R
Sampling rate : 44.1 KHz
Compression mode : Lossy
Stream size : 8.99 MiB (2%)

 

 

 

 

 

 

 

 

 

 

 

Watch PROGRESS Originals Travis Banks Championship Pride 2017 10 18 /720p

 

 

 

 

Watch online

 

 

Waiting finish converting video

 

 

Server 1

 

 

 

 

 

 

 

 

 

 

 

 

 

 

 

 

 

 

 

 

 

 

Server 2

 

 

 

 

 

 

 

 

 

 

 

 


 

 

 

 

 

 

 

Uploaded By Site DX-TV.com

 

 

 

open rar file to see this password

 

 

 

 

The password is : DX-TV.com

 

 

 

 

400p+720p

 

 

 

 

Uploaded.net

 

 

 

 

 

http://shrt10.com/XJ1Tey3

 

 

 

 

http://shrt10.com/ra6zp

 

 

 

 

 

 

 

 

rapidgator.net

 

 

 

 

 

 

http://shrt10.com/GRjl

 

 

 

 

http://shrt10.com/Q55CPgcP

 

 

 

 

 

Watch PROGRESS Originals Travis Banks Championship Pride 2017 10 18 /720p

Support HVIPS

Please Disable Ad-Block To View This site. just help us to continue this work