Watch Online WWE RAW 2018 02 26 HDTV Ebi mp4

Watch Online WWE RAW 2018 02 26 HDTV Ebi mp4

 

 

 

s

 

 

 

wwe

 

 

 

 

 

 

Complete name : WWE.RAW.2018.02.26.HDTV.x264-Ebi.mp4
Format : MPEG-4
Format profile : Base Media / Version 2
Codec ID : mp42
File size : 1.43 GiB
Duration : 2h 19mn
Overall bit rate : 1 462 Kbps
Encoded date : UTC 2018-02-27 04:47:15
Tagged date : UTC 2018-02-27 04:47:15

Video
ID : 1
Format : AVC
Format/Info : Advanced Video Codec
Codec ID : avc1
Codec ID/Info : Advanced Video Coding
Duration : 2h 19mn
Bit rate mode : Variable
Bit rate : 1 300 Kbps
Width : 712 pixels
Height : 400 pixels
Display aspect ratio : 16:9
Frame rate mode : Constant
Frame rate : 29.970 fps
Color space : YUV
Chroma subsampling : 4:2:0
Bit depth : 8 bits
Scan type : Progressive
Bits/(Pixel*Frame) : 0.152
Stream size : 1.27 GiB (89%)
Audio
ID : 2
Format : AAC
Format/Info : Advanced Audio Codec
Format profile : LC
Codec ID : 40
Duration : 2h 19mn
Bit rate mode : Variable
Bit rate : 160 Kbps
Channel(s) : 2 channels
Channel positions : Front: L R
Sampling rate : 48.0 KHz
Compression mode : Lossy
Stream size : 160 MiB (11%)
Title : Stereo
Encoded date : UTC 2018-02-27 04:47:15
Tagged date : UTC 2018-02-27 04:47:15

 

 

 

 

 

 

 

 

Watch Online WWE RAW 2018 02 26 HDTV Ebi mp4

 

 

 

 

Watch online

 

 

Waiting finish converting video

 

 

Server 1

 

 

 

 

 

 

 

 

 

 

 

 

 

 

 

 

 

 

Server 2

 

 

 

 

 

 

 


 

 

 

 

 

 

 

 

Uploaded.net + rapidgator.net

 

 

 

 

 

 

 

http://shrt10.com/r3lc1

 

 

 

 

 

http://shrt10.com/yElV3D

 

 

 

 

 

 

 

 

Watch Online WWE RAW 2018 02 26 HDTV Ebi mp4