Watch ONE Championship Global Superheroes 2018 01 26 HDTV Ebi /720p / Prelims

Watch ONE Championship Global Superheroes 2018 01 26 HDTV Ebi /720p / Prelims

 

 

 

 

 

 

wwe

 

 

 

 

 

 

 

ONE.Championship.Global.Superheroes.2018.01.26.HDTV.x264-Ebi
Release Info:
Show Name: ONE Championship Global Superheroes
Genre: MMA
Release Date: 2018-01-26(UK)
Air Date: 2018-01-26(PH)
Source : HDTV
Container: MP4
Video: x264, 1469Kbps, 29,970fps, 712×400, 16:9
Audio: AAC, 160Kbps, 48KHz, 2ch
Size: 1.58 GB
Runtime: 2h 34mn
 

 

 

 

 

 

 

 
Complete name : ONE.Championship.Global.Superheroes.2018.01.26.720p.HDTV.x264-Ebi.mp4
Format : MPEG-4
Format profile : Base Media / Version 2
Codec ID : mp42
File size : 5.07 GiB
Duration : 2h 34mn
Overall bit rate : 4 708 Kbps

Video
ID : 1
Format : AVC
Format/Info : Advanced Video Codec
Codec ID : avc1
Codec ID/Info : Advanced Video Coding
Duration : 2h 34mn
Bit rate mode : Variable
Bit rate : 4 500 Kbps
Width : 1 280 pixels
Height : 720 pixels
Display aspect ratio : 16:9
Frame rate mode : Constant
Frame rate : 29.970 fps
Color space : YUV
Chroma subsampling : 4:2:0
Bit depth : 8 bits
Scan type : Progressive
Bits/(Pixel*Frame) : 0.163
Stream size : 4.85 GiB (96%)
Audio
ID : 2
Format : AAC
Format/Info : Advanced Audio Codec
Format profile : LC
Codec ID : 40
Duration : 2h 34mn
Bit rate mode : Variable
Bit rate : 192 Kbps
Channel(s) : 2 channels
Channel positions : Front: L R
Sampling rate : 48.0 KHz
Compression mode : Lossy
Stream size : 212 MiB (4%)
Title : Stereo

 

 

 

 

 

 

 

 

 

Watch ONE Championship Global Superheroes 2018 01 26 HDTV Ebi /720p / Prelims

 

 

 

 

Watch online

 

 

Waiting finish converting video

 

 

Server 1

 

 

 

 

 

 

 

 

 

 

 

 

 

 

 

 

 

Server 2

 

 

 

 

 

 

 


 

 

 

 

 

 

 

Uploaded By Site DX-TV.com

 

 

 

open rar file to see this password

 

 

 

 

The password is : DX-TV.com

 

 

 

 

400p+720p

 

 

 

 

 

Uploaded.net + rapidgator.net

 

 

 

 

 

 

 

 

http://shrt10.com/JStsPBO

 

 

http://shrt10.com/pzwwVP

 

 

http://shrt10.com/SxkRDF

 

 

http://shrt10.com/h9UeR

 

 

http://shrt10.com/05MBPE2

 

 

http://shrt10.com/BbZfY6

 

 

http://shrt10.com/aaVqZ

 

 

http://shrt10.com/n4VAD

 

 

 

 

 

 

 

 

 

 

 

Watch ONE Championship Global Superheroes 2018 01 26 HDTV Ebi /720p / Prelims

Support HVIPS

Please Disable Ad-Block To View This site. just help us to continue this work