Watch NOAH 2017 12 22 Winter Navigation 2017 Day 11 720p

Watch NOAH 2017 12 22 Winter Navigation 2017 Day 11 720p

 

 

 

 

 

 

wwe

 

 

 

 

 

 

 

Complete name : NOAH.2017.12.22.Winter.Navigation.2017.Day.11.720p.mp4
Format : MPEG-4
Codec ID : mp42
File size : 4.82 GiB
Duration : 3h 25mn
Overall bit rate : 3 349 Kbps

Video
ID : 1
Format : AVC
Duration : 3h 25mn
Bit rate mode : Variable
Bit rate : 3 245 Kbps
Width : 1 280 pixels
Height : 720 pixels
Display aspect ratio : 16:9
Frame rate mode : Variable
Frame rate : 29.970 fps
Original frame rate : 35.714 fps
Minimum frame rate : 6.211 fps
Maximum frame rate : 43.478 fps
Color space : YUV
Chroma subsampling : 4:2:0
Bit depth : 8 bits
Scan type : Progressive
Bits/(Pixel*Frame) : 0.117
Stream size : 4.67 GiB (97%)

Audio
ID : 2
Format : AAC
Format profile : LC
Codec ID : 40
Duration : 3h 25mn
Bit rate mode : Variable
Bit rate : 96.0 Kbps
Channel(s) : 2 channels
Channel positions : Front: L R
Sampling rate : 44.1 KHz
Compression mode : Lossy
Stream size : 142 MiB (3%)

 

 

 

 

 

 
CARD

Six Man Tag Team Match
Go Shiozaki, Masao Inoue & Yoshinari Ogawa vs. Heisei Ishingun (Akitoshi Saito, Shiro Koshinaka & The Great Kabuki)

Tag Team Match
Back Breakers (Hajime Ohara & Hitoshi Kumano) vs. Seiya Morohashi & Tadasuke

Tag Team Match
Cody Hall & Sheldon Jean vs. Katsuhiko Nakajima & Masa Kitamiya

Six Man Tag Team Match
XX (Hi69 & Taiji Ishimori) & Atsushi Kotoge vs. LEONA, Mitsuya Nagai & Yuko Miyamoto

GHC Junior Heavyweight Tag Team Title Match
RATEL’S (HAYATA & YO-HEY) (c) vs. Gurukun Mask & Shuri Joe

GHC Tag Team Title Match
Mohammed Yone & Quiet Storm (c) vs. Maybach Taniguchi & Naomichi Marufuji

Singles Match
Moose vs. Takashi Sugiura

GHC Junior Heavyweight Title Match
Daisuke Harada (c) vs. Minoru Tanaka

GHC Heavyweight Title Match
Eddie Edwards (c) vs. Kenou

Credit to the RealHero team
 

 

 

 

 

 

 

 

Watch NOAH 2017 12 22 Winter Navigation 2017 Day 11 720p

 

 

 

 

Watch online

 

 

Waiting finish converting video

 

 

Server 1

 

 

 

 

 

 

 

 

 

 

 

 

 

 

 

 

 

 

 

 

 

 

 

Server 2

 

 

 

 

 

 

 

 

 

 


 

 

 

 

 

 

 

 

 

 

 

Uploaded By Site DX-TV.com

 

 

 

open rar file to see this password

 

 

 

 

The password is : DX-TV.com

 

 

 

 

rapidgator.net

 

 

 

 

 

 

 

 

 

http://shrt10.com/Y026UED2

 

 

 

http://shrt10.com/DkhKUuo

 

 

 

 

 

 

 

 

 

 

 

 

Watch NOAH 2017 12 22 Winter Navigation 2017 Day 11 720p

Support HVIPS

Please Disable Ad-Block To View This site. just help us to continue this work