Watch NJPW Tag League 2017 12 01 Day 11 TVRip Lopatar Full Show

Watch NJPW Tag League 2017 12 01 Day 11 TVRip Lopatar Full Show

 

 

 

 

 

 

wwe

 

 

 

 

 

 

 

NJPW Tag League 2017 12 01 Day 11 TVRip Lopatar
 

 
[SIZE]: 1.19 GB
[SOURCE]: Samurai TV
[CONTAINER]: mp4
[RESOLUTION]: 1024 x 576 @ 29.970 FPS
[VIDEO]: x264 @ 1375 Kbps
[AUDIO]: AAC 2.0 @ 96 kbps
[Length]: 01:55:00
[Language]: Japanese

Unedited Samurai TV feed of the whole show.
 

 

 

 

Complete name : NJPW.World.Tag.League.2017.12.01.Day.11.TVRip.x264-Lopatar.mp4
Format : MPEG-4
Format profile : Base Media
Codec ID : isom
File size : 1.19 GiB
Duration : 1h 55mn
Overall bit rate : 1 484 Kbps
Writing application : Lavf57.76.100

Video
ID : 1
Format : AVC
Format/Info : Advanced Video Codec
Codec ID : avc1
Codec ID/Info : Advanced Video Coding
Duration : 1h 55mn
Bit rate mode : Variable
Bit rate : 1 375 Kbps
Width : 1 024 pixels
Height : 576 pixels
Display aspect ratio : 16:9
Frame rate mode : Variable
Frame rate : 29.970 fps
Minimum frame rate : 18.868 fps
Maximum frame rate : 83.333 fps
Color space : YUV
Chroma subsampling : 4:2:0
Bit depth : 8 bits
Scan type : Progressive
Bits/(Pixel*Frame) : 0.078
Stream size : 1.10 GiB (93%)

Audio
ID : 2
Format : AAC
Format/Info : Advanced Audio Codec
Format profile : LC
Codec ID : 40
Duration : 1h 55mn
Bit rate mode : Constant
Bit rate : 96.0 Kbps
Channel(s) : 2 channels
Channel positions : Front: L R
Sampling rate : 44.1 KHz
Compression mode : Lossy
Stream size : 79.2 MiB (6%)

 

 

 

 

 

 

 

 

 

 

Watch NJPW Tag League 2017 12 01 Day 11 TVRip Lopatar Full Show

 

 

 

 

Watch online

 

 

Waiting finish converting video

 

 

Server 1

 

 

 

 

 

 

 

 

 

 

 

 

 

 

 

 

 

 

 

 

 

 

Srver 2

 

 

 

 

 

 

 

 

 

 

 

 

 

 

 

 

 

 


 

 

 

 

 

 

 

 

 

 

 

 

 

Server 3

 

 

 

 

 

 

 

 

 

 

 

 

 

 

 

 

 

 

 


 

 

 

 

 

 

 

 

 

 

 

 

Uploaded By Site DX-TV.com

 

 

 

open rar file to see this password

 

 

 

 

The password is : DX-TV.com

 

 

 

 

 

 

 

 

 

 

 

rapidgator.net

 

 

 

 

 

 

 

http://shrt10.com/4Zff

 

 

 

 

 

 

 

 

 

Watch NJPW Tag League 2017 12 01 Day 11 TVRip Lopatar Full Show