Watch NJPW Strong Style Evolved 2018 03 25 WEB DL x264 DX-TV English

Watch NJPW Strong Style Evolved 2018 03 25 WEB DL x264 DX-TV English

 

 

 

s

 

 

 

wwe

 

 

 

 

 

 

Complete name :NJPW Strong Style Evolved 2018-03-25 WEB DL x264 DX-TV English.mp4
Format : MPEG-4
Format profile : Base Media
Codec ID : isom
File size : 3.81 GiB
Duration : 4h 31mn
Overall bit rate : 2 010 Kbps
Writing application : Lavf56.40.101

Video
ID : 1
Format : AVC
Format/Info : Advanced Video Codec
Format profile : Baseline@L3.1
Codec ID/Info : Advanced Video Coding
Duration : 4h 31mn
Bit rate mode : Constant
Bit rate : 1 904 Kbps
Width : 960 pixels
Height : 540 pixels
Display aspect ratio : 16:9
Frame rate mode : Variable
Frame rate : 29.949 fps
Original frame rate : 29.970 fps
Minimum frame rate : 0.091 fps
Maximum frame rate : 30.303 fps
Standard : NTSC
Color space : YUV
Chroma subsampling : 4:2:0
Bit depth : 8 bits
Scan type : Progressive
Bits/(Pixel*Frame) : 0.123
Stream size : 3.61 GiB (95%)

Audio
ID : 2
Format : AAC
Format/Info : Advanced Audio Codec
Format profile : LC
Codec ID : 40
Duration : 4h 31mn
Bit rate mode : Variable
Bit rate : 96.0 Kbps
Maximum bit rate : 104 Kbps
Channel(s) : 2 channels
Channel positions : Front: L R
Sampling rate : 44.1 KHz
Compression mode : Lossy
Stream size : 186 MiB (5%)

 

 

 

 

 

 

 

 

 

 

 

Watch NJPW Strong Style Evolved 2018 03 25 WEB DL x264 DX-TV English

 

 

 

 

Watch online

 

 

Waiting finish converting video

 

 

Server 1

 

 

 

 

 

 

 

 

 

 

 

 

 

 

 

 

 

 

 

 

 

 

 

 

 

Server 2

 

 

 

 

 

 

 

 

 

 

 


 

 

 

 

 

 

 

 

 

 

 

 

Uploaded By Site DX-TV.com

 

 

 

open rar file to see this password

 

 

 

 

The password is : DX-TV.com

 

 

 

 

400p+720p

 

 

 

 

 

Uploaded.net + rapidgator.net

 

 

 

 

 

http://shrt10.com/51JsBD1F

 

 

 

http://shrt10.com/yVOZ

 

 

 

 

 

 

 

 

 

 

Watch NJPW Strong Style Evolved 2018 03 25 WEB DL x264 DX-TV English

Support HVIPS

Please Disable Ad-Block To View This site. just help us to continue this work